<?xml version="1.0" standalone="no"?>
<!DOCTYPE svg PUBLIC "-//W3C//DTD SVG 1.1//EN" "http://www.w3.org/Graphics/SVG/1.1/DTD/svg11.dtd" >
<svg xmlns="http://www.w3.org/2000/svg">
<metadata></metadata>
<defs>
<font id="merriweatheritalic" horiz-adv-x="0" >
<font-face units-per-em="2048" ascent="1638" descent="-410" />
<missing-glyph horiz-adv-x="485" />
<glyph />
<glyph unicode="&#xd;" />
<glyph unicode="&#x9;" />
<glyph unicode="&#xa;" />
<glyph />
<glyph />
<glyph />
<glyph />
<glyph />
<glyph />
<glyph />
<glyph unicode=" "  horiz-adv-x="485" />
<glyph unicode="&#x09;" horiz-adv-x="485" />
<glyph unicode="&#xa0;" horiz-adv-x="485" />
<glyph unicode="!" horiz-adv-x="687" d="M137 105q4 31 19 58.5t36.5 47.5t48.5 31.5t55 11.5q36 0 60.5 -10t39.5 -27.5t20 -40.5t2 -49q-5 -34 -20.5 -61.5t-39 -47t-52 -30t-58.5 -10.5q-27 0 -49 8.5t-37 25t-21.5 40t-3.5 53.5zM254 490l136 1288h249l-244 -1288h-141z" />
<glyph unicode="&#x22;" horiz-adv-x="1007" d="M250 966l77 721h230l-165 -721h-142zM731 966l77 721h230l-165 -721h-142z" />
<glyph unicode="#" horiz-adv-x="1405" d="M111 365l9 130h224l64 401h-219l8 129h231l53 332h167l-51 -332h309l56 332h167l-54 -332h231l-8 -129h-243l-64 -401h226l-9 -130h-238l-57 -365h-162l51 365h-310l-62 -365h-164l58 365h-213zM513 495h309l64 401h-309z" />
<glyph unicode="$" horiz-adv-x="1205" d="M105 65l46 280h129l22 -185q24 -20 53 -34t61.5 -24t66 -14.5t65.5 -4.5q49 0 103 14t99 45.5t74 80.5t29 120q0 60 -21 108t-57 87.5t-83.5 73.5t-100.5 67q-62 39 -123.5 79.5t-110 91t-78.5 114t-30 148.5q0 91 33 165t90.5 129t135 88.5t165.5 43.5l30 183h181 l-31 -185q99 -10 165 -33.5t98 -45.5l-47 -247h-119l-36 165q-17 13 -41.5 24t-53 19t-59 12t-58.5 4q-40 0 -86.5 -13t-86 -42t-66 -76.5t-26.5 -116.5q0 -61 22 -108.5t59.5 -86.5t86.5 -73t104 -67q62 -38 122.5 -79t108 -90.5t77 -111t29.5 -140.5q0 -96 -35 -174 t-96 -135t-143 -92.5t-176 -46.5l-34 -212h-180l34 211q-55 5 -105 14.5t-91 21t-70.5 24t-44.5 24.5z" />
<glyph unicode="%" horiz-adv-x="1911" d="M198 1055q0 79 31 155.5t86.5 136.5t131 96.5t165.5 36.5q75 0 127.5 -22t86.5 -61t49.5 -93.5t15.5 -118.5q0 -82 -29 -161t-83 -141t-130.5 -100t-170.5 -38q-69 0 -121.5 23.5t-87.5 65.5t-53 98.5t-18 122.5zM372 1057q0 -47 8 -85t24.5 -66t42 -43t60.5 -15 q55 0 93.5 34t62.5 84.5t34.5 107.5t10.5 103q0 93 -29.5 147t-94.5 54q-56 0 -96 -32.5t-66 -81t-38 -104.5t-12 -103zM394 0l947 1530h161l-947 -1530h-161zM1035 374q0 53 14 105t40 99.5t63 88t83 70t100 46.5t114 17q75 0 127.5 -22t86.5 -61.5t49.5 -94t15.5 -118.5 q0 -82 -29 -161t-83 -141t-130.5 -100t-171.5 -38q-69 0 -121 23.5t-87 65.5t-53 98.5t-18 122.5zM1209 376q0 -47 8 -85t24.5 -66t41.5 -43t60 -15q55 0 93.5 34t62.5 84.5t35 107.5t11 103q0 93 -29.5 147t-94.5 54q-56 0 -96.5 -32.5t-66 -81t-37.5 -104.5t-12 -103z" />
<glyph unicode="&#x26;" horiz-adv-x="1545" d="M50 367q0 77 29 137.5t77.5 109t112 89t133.5 76.5q-18 42 -34 89.5t-28.5 96t-19.5 96t-7 88.5q0 91 35.5 165t97 126t144.5 80.5t179 28.5q94 0 157.5 -24.5t102.5 -64t55.5 -90t16.5 -101.5q0 -60 -20 -110.5t-55 -94t-82 -81t-101.5 -71.5t-113 -66.5t-115.5 -64.5 q90 -159 191.5 -294t221.5 -241q38 57 51.5 130.5t13.5 164.5q0 42 -6.5 76.5t-15.5 62.5q-10 0 -19.5 0.5t-20.5 0.5q-47 0 -87 -13.5t-62 -24.5v138q7 7 19.5 15.5t31.5 16t45 12.5t59 5q28 0 57 -4t60 -8.5t63 -8t67 -3.5q38 0 69.5 8t55 27t39.5 50t23 77h78 q0 -71 -12.5 -129.5t-39 -100t-68.5 -64.5t-102 -23q-28 0 -55 3q2 -15 3.5 -32t1.5 -37q0 -128 -43 -230.5t-120 -178.5q22 -17 43.5 -30.5t44.5 -24.5q41 -15 89 -24.5t89 -10.5l-11 -86q-61 -15 -105 -17.5t-76 -2.5q-63 0 -124.5 20t-114.5 61q-166 -79 -380 -79 q-97 0 -190 22t-166 68.5t-117.5 119.5t-44.5 175zM260 372q0 -73 27 -125.5t72.5 -86.5t104.5 -50.5t124 -16.5q90 0 158.5 9.5t122.5 28.5q-80 74 -139 142t-106 134.5t-87.5 133.5t-83.5 139q-42 -30 -77.5 -63.5t-61 -71.5t-40 -81t-14.5 -92zM499 1176q0 -94 22.5 -174 t48.5 -137q66 35 126 73t105.5 83.5t72 101t26.5 125.5q0 34 -6 69t-23 63.5t-47.5 46.5t-79.5 18q-58 0 -103.5 -21t-77 -57t-48 -85t-16.5 -106z" />
<glyph unicode="'" horiz-adv-x="527" d="M241 966l77 721h230l-165 -721h-142z" />
<glyph unicode="(" horiz-adv-x="855" d="M202 505q0 103 15 219q15 108 45 207.5t69.5 188t87 166.5t96 144t97 119t90 92.5t74.5 65t51 35.5l89 -60q-21 -14 -58.5 -50t-83.5 -93t-96.5 -134.5t-97.5 -174t-85.5 -211.5t-61.5 -246q-4 -31 -7.5 -65.5t-6.5 -68.5t-4.5 -66.5t-1.5 -60.5q0 -110 14 -205.5 t36.5 -176t51 -145t57 -113t54.5 -80.5t44 -47l-109 -65h-17q-19 12 -51.5 42.5t-70.5 79.5t-77 117t-71 155.5t-52 195t-20 235.5z" />
<glyph unicode=")" horiz-adv-x="856" d="M-41 -254q21 14 58.5 50t83.5 93t96.5 134.5t97.5 174t85.5 211.5t61.5 246q4 31 7.5 65.5t6.5 68.5t4.5 66.5t1.5 60.5q0 110 -14 205.5t-36.5 176t-51 145t-57 113t-54.5 80.5t-44 47l109 65h17q19 -12 51.5 -42.5t70.5 -79.5t77 -117t71 -155.5t52 -195t20 -235.5 q0 -103 -15 -219q-15 -108 -45 -207.5t-69.5 -188t-87 -166.5t-96 -144t-97 -119t-90 -92.5t-74.5 -65t-51 -35.5z" />
<glyph unicode="*" horiz-adv-x="1366" d="M276 982l324 131l111 37l-103 37l-298 131l116 167l245 -203l79 -75l-11 112l-7 335l194 -1l-77 -334l-33 -112l94 75l291 204l77 -168l-323 -131l-112 -38l104 -36l298 -131l-116 -167l-246 203l-80 77l11 -114l7 -335l-194 1l77 334l33 114l-93 -77l-291 -204z" />
<glyph unicode="+" horiz-adv-x="1364" d="M252 692l18 160h225l138 -11l13 165l27 230h180l-26 -230l-29 -164l115 10h254l-18 -160h-255l-112 7q-2 -42 -5 -82t-5 -82l-28 -241h-180l27 241l26 164l-141 -7h-224z" />
<glyph unicode="," horiz-adv-x="527" d="M-8 -422l3 21q34 18 67 47.5t58.5 69.5t41 89t15.5 107q0 33 -8 63t-21 54.5t-30 42t-36 25.5l1 45l158 124q42 -18 72 -50t49.5 -72t28.5 -85.5t9 -91.5q0 -84 -28.5 -159t-76 -135.5t-110 -105.5t-130.5 -69z" />
<glyph unicode="-" horiz-adv-x="1127" d="M223 692l18 160h717l-18 -160h-717z" />
<glyph unicode="." horiz-adv-x="527" d="M86 105q4 31 19 58.5t36.5 47.5t48.5 31.5t55 11.5q36 0 60.5 -10t39 -27.5t19.5 -40.5t2 -49q-4 -34 -19.5 -61.5t-39 -47t-52 -30t-58.5 -10.5q-27 0 -49 8.5t-37 25t-22 40t-3 53.5z" />
<glyph unicode="/" horiz-adv-x="854" d="M-132 -362l861 1959h177l-863 -1959h-175z" />
<glyph unicode="0" horiz-adv-x="1278" d="M131 451q0 151 48.5 281t132 225.5t195 150t236.5 54.5q114 0 193 -34.5t128 -96t71 -147.5t22 -188q0 -94 -20.5 -183.5t-59 -168.5t-93 -145t-122 -114t-146.5 -74.5t-166 -26.5q-114 0 -193.5 37.5t-129.5 101.5t-73 148.5t-23 179.5zM343 466q0 -75 13 -142.5 t40.5 -118.5t71 -81t104.5 -30q64 0 116.5 24.5t94 67t72 99.5t50.5 121.5t29.5 134t9.5 136.5q0 83 -13 152t-40.5 118.5t-70.5 77t-104 28.5q-74 1 -130 -26t-97.5 -73t-69.5 -106.5t-45 -126.5t-24 -132t-7 -123z" />
<glyph unicode="1" horiz-adv-x="918" d="M109 0l10 88l199 25l110 802q-58 -14 -121 -27.5t-129 -24.5l-15 97q52 12 109 34.5t112.5 50.5t106 59t90.5 58l88 -21l-144 -1027l213 -26l-10 -88h-619z" />
<glyph unicode="2" horiz-adv-x="1170" d="M35 80q146 72 276 154.5t227 172.5t153.5 185.5t56.5 192.5q0 57 -11.5 101.5t-37 75t-66.5 46.5t-100 16q-52 0 -99 -14.5t-88.5 -37t-77 -49t-63.5 -50.5l-54 91q30 31 75 66t103.5 64t129 48.5t151.5 19.5q109 0 179.5 -28.5t111.5 -75.5t57 -108t16 -126 q0 -69 -26 -135.5t-72 -130.5t-109.5 -124.5t-139 -116t-160 -106.5t-172.5 -95l545 48l97 150l103 -36l-80 -278h-907z" />
<glyph unicode="3" horiz-adv-x="1077" d="M24 -316l15 116q37 -5 69.5 -8t60.5 -3q98 0 190.5 24.5t164.5 72t116 116t44 156.5q0 57 -16 102t-50.5 76.5t-88.5 48.5t-130 17l-141 -34l16 118q45 9 94.5 25.5t97 39t90.5 52t75.5 65.5t51.5 79.5t19 93.5q0 51 -16 85t-43 55t-62 30t-73 9q-50 0 -94.5 -10.5 t-84 -27.5t-75.5 -40t-69 -47l-43 101q25 25 69 54t103.5 54t131 41.5t152.5 16.5q64 0 123.5 -16.5t105 -50.5t72.5 -87.5t27 -126.5q0 -68 -31.5 -130t-83.5 -114.5t-118 -92.5t-135 -64q103 4 171.5 -17.5t109 -61t57.5 -93.5t17 -115q0 -77 -29.5 -146t-80.5 -127 t-120.5 -104t-150.5 -78.5t-169 -49.5t-176 -17q-38 0 -78 3.5t-85 9.5z" />
<glyph unicode="4" horiz-adv-x="1251" d="M34 94q63 81 141.5 197.5t168.5 264t188.5 324t201.5 376.5h37l159 -91q-27 -51 -69 -119t-93.5 -147t-110 -165.5t-119 -174.5t-120.5 -174t-114 -164l-100 -120l502 28l51 403l198 59l-56 -446l249 15l-21 -160h-248l-47 -375h-194l49 375h-616z" />
<glyph unicode="5" horiz-adv-x="1108" d="M38 -329l14 92q23 -4 42.5 -5t37.5 -1q75 0 147.5 15.5t137 43.5t119.5 68t94.5 89t62 106t22.5 120q0 72 -15 122t-47.5 81.5t-82 45.5t-118.5 14q-55 0 -121 -14.5t-139 -39.5l-49 39l170 699h569l22 16h139l-58 -187h-534l-116 -424q24 7 53 12.5t59 9.5t58.5 6 t52.5 2q81 0 152.5 -20.5t125 -64t84.5 -111.5t31 -163q0 -91 -32 -168.5t-88 -140.5t-132 -111.5t-162.5 -81t-180 -49.5t-185.5 -17q-13 0 -29.5 0.5t-34.5 2.5t-36 5.5t-33 8.5z" />
<glyph unicode="6" horiz-adv-x="1244" d="M135 470q0 121 29.5 240.5t83.5 230.5t131 210.5t172.5 181.5t207 143t234.5 95l30 -87q-112 -42 -211 -113t-180 -159t-141.5 -186.5t-95.5 -196.5q25 27 61 53.5t81.5 47t99.5 33.5t116 13q95 0 163.5 -30.5t112.5 -83t65 -122.5t21 -149q0 -117 -40.5 -227.5 t-114.5 -195.5t-178 -136.5t-231 -51.5q-103 0 -180.5 38t-130 104t-79 155.5t-26.5 192.5zM347 448q0 -74 12 -139t40.5 -114t76.5 -77.5t119 -28.5q55 0 99 20.5t78 54.5t58 79.5t39.5 96t22.5 102.5t7 100q0 150 -54 229t-143 79q-73 0 -127.5 -18.5t-94 -45t-65 -55 t-41.5 -48.5q-14 -65 -20.5 -122.5t-6.5 -112.5z" />
<glyph unicode="7" horiz-adv-x="1096" d="M108 813l61 333h894l32 -43l-602 -1425l-212 67l655 1248h-610l-86 -184z" />
<glyph unicode="8" horiz-adv-x="1183" d="M105 334q0 79 28 148.5t78.5 128.5t121.5 108t158 87q-41 33 -79 72t-67 84t-47 96.5t-18 108.5q0 83 36.5 153.5t100 121.5t149 79.5t182.5 28.5q82 0 151 -22t119 -63t78 -101t28 -135q0 -72 -26 -132.5t-71 -111.5t-106.5 -93.5t-132.5 -78.5q54 -38 103 -85.5 t86 -101.5t59 -113.5t22 -122.5q0 -100 -42.5 -176.5t-113.5 -128.5t-162.5 -78.5t-190.5 -26.5q-52 0 -105 9t-102 27.5t-92.5 47t-75.5 68t-50.5 90t-18.5 112.5zM321 367q0 -134 65 -207t183 -73q59 0 110.5 15.5t89.5 49t59.5 85t21.5 123.5q0 55 -21 105.5t-59.5 97.5 t-92 91t-117.5 87q-56 -26 -100 -64.5t-75 -87t-47.5 -105t-16.5 -117.5zM474 1185q0 -51 18.5 -95t50 -82.5t73 -73.5t87.5 -68q51 23 92 58t70 79.5t44.5 98t15.5 112.5q0 60 -15.5 104.5t-42.5 73.5t-63 43.5t-77 14.5q-53 0 -99 -16t-80.5 -49t-54 -83t-19.5 -117z" />
<glyph unicode="9" horiz-adv-x="1245" d="M132 572q0 68 16 138.5t47.5 136t79 123t110 100t140 67.5t169.5 25q103 0 180.5 -37t130 -101.5t79 -152t26.5 -186.5q0 -127 -29.5 -249.5t-84 -235.5t-131.5 -212.5t-172.5 -181.5t-207 -142.5t-234.5 -94.5l-30 88q111 42 211 113.5t182.5 160t144.5 187.5t98 197 q-28 -30 -66.5 -57t-85 -47.5t-100 -33t-113.5 -12.5q-97 0 -165.5 35.5t-111.5 93.5t-63 131t-20 147zM337 616q0 -78 17 -139t45.5 -102t65.5 -62.5t78 -21.5q69 0 122.5 18.5t93.5 44.5t67.5 55t44.5 50q14 57 20.5 123t6.5 123q0 66 -12 129t-40.5 111.5t-76.5 78 t-119 29.5q-55 0 -99.5 -20t-79 -53.5t-60 -78t-42 -93t-24.5 -98t-8 -94.5z" />
<glyph unicode=":" horiz-adv-x="527" d="M68 105q4 31 19 58.5t36.5 47.5t48.5 31.5t55 11.5q36 0 60.5 -10t39 -27.5t19.5 -40.5t2 -49q-4 -34 -19.5 -61.5t-39 -47t-52 -30t-58.5 -10.5q-27 0 -49 8.5t-37 25t-22 40t-3 53.5zM160 914q4 31 19 58.5t36.5 47.5t48.5 31.5t55 11.5q36 0 60.5 -10t39 -27.5 t19.5 -40.5t2 -49q-4 -34 -19.5 -61.5t-39 -47t-52 -30t-58.5 -10.5q-27 0 -49 8.5t-37 25t-22 40t-3 53.5z" />
<glyph unicode=";" horiz-adv-x="527" d="M-25 -422l3 21q34 18 67 47.5t58.5 69.5t41 89t15.5 107q0 33 -8 63t-21 54.5t-30 42t-36 25.5l1 45l158 124q42 -18 72 -50t49.5 -72t28.5 -85.5t9 -91.5q0 -84 -28.5 -159t-76 -135.5t-110 -105.5t-130.5 -69zM162 914q4 31 19 58.5t36.5 47.5t48.5 31.5t55 11.5 q36 0 60.5 -10t39 -27.5t19.5 -40.5t2 -49q-4 -34 -19.5 -61.5t-39 -47t-52 -30t-58.5 -10.5q-27 0 -49 8.5t-37 25t-22 40t-3 53.5z" />
<glyph unicode="&#x3c;" horiz-adv-x="1368" d="M195 686l16 128l1009 510l-24 -197l-792 -376l704 -376l-23 -199z" />
<glyph unicode="=" horiz-adv-x="1063" d="M80 338l18 158h815l-18 -158h-815zM150 848l18 158h815l-18 -158h-815z" />
<glyph unicode="&#x3e;" horiz-adv-x="1368" d="M250 179l24 197l792 376l-704 376l23 199l890 -510l-16 -128z" />
<glyph unicode="?" horiz-adv-x="1017" d="M260 721q0 45 21 84.5t58.5 75t90 67.5t115.5 63q41 19 79.5 37.5t73 41.5t65 53t57.5 73q5 22 7 43t2 42q0 86 -28 151t-77 109t-115.5 66.5t-143.5 22.5q-17 0 -39 -1.5t-46 -5.5t-48 -10t-45 -16l29 143q11 11 33 20.5t50.5 17t60.5 12t63 4.5q138 0 230.5 -36 t148 -95t79 -135t23.5 -156q0 -67 -14.5 -121t-40.5 -98q-28 -49 -66 -87t-81.5 -69.5t-89 -57.5t-87.5 -51q-38 -23 -71 -45.5t-57.5 -49t-38.5 -57t-14 -69.5q-1 -51 3 -99t9 -74l-129 -50l-17 1q-11 17 -20.5 45.5t-16 63t-10 72.5t-3.5 75zM294 105q4 31 18.5 58.5 t36 47.5t48.5 31.5t56 11.5q36 0 60.5 -10t39 -27.5t19.5 -40.5t2 -49q-4 -34 -20 -61.5t-39 -47t-51.5 -30t-58.5 -10.5q-27 0 -49 8.5t-37 25t-22 40t-3 53.5z" />
<glyph unicode="@" horiz-adv-x="1969" d="M117 334q0 181 39.5 341.5t110.5 295t170.5 241.5t219.5 181t257.5 113.5t284.5 39.5q151 0 275 -43.5t212 -125t136 -200t48 -268.5q0 -140 -26.5 -260t-72.5 -219t-106.5 -175.5t-128.5 -128.5t-139.5 -79t-138.5 -27q-34 0 -52.5 15t-27.5 42t-10.5 64.5t-1.5 82.5 q0 35 6.5 85t22.5 119q-34 -80 -77.5 -155.5t-93.5 -134.5t-104.5 -95t-109.5 -36q-51 0 -101 25t-90 77t-64.5 133t-24.5 192q0 73 14.5 150t44 150.5t74 138.5t105 114t136.5 77.5t169 28.5q21 0 49.5 -3t59.5 -9.5t60 -16.5t50 -25l167 30q-15 -57 -31 -140.5t-31 -175.5 t-27.5 -184.5t-19.5 -167.5q-8 -77 -7 -123.5t5 -73.5q2 -14 5.5 -26.5t11.5 -12.5q42 0 84.5 27.5t81 75.5t72.5 113t58.5 139.5t39 155.5t14.5 162q0 164 -51.5 274.5t-136.5 177.5t-193.5 95.5t-222.5 28.5q-135 0 -249.5 -39.5t-208 -109.5t-164.5 -165.5t-119.5 -207 t-73 -235t-24.5 -249.5q0 -190 44.5 -323t126.5 -216t198.5 -121t260.5 -38q44 0 96 5.5t102 14.5t92.5 20.5t68.5 23.5l32 -86q-70 -53 -179 -84.5t-238 -31.5q-176 0 -316.5 46t-238.5 140.5t-151 238t-53 337.5zM711 447q0 -58 7 -108t23 -87t41.5 -58.5t63.5 -21.5 q34 0 74.5 36t82 94.5t81 133.5t72 153.5t55 154t30.5 135.5q-13 22 -35.5 39t-49 27.5t-52.5 16t-47 5.5q-69 0 -121.5 -22.5t-91 -61t-64 -90t-41 -109t-22 -118.5t-6.5 -119z" />
<glyph unicode="A" horiz-adv-x="1342" d="M-120 0l9 87l119 29l707 1406h205l253 -1403l156 -32l-7 -87h-515l5 87l156 29l-50 319h-567l-150 -318l160 -30l-6 -87h-475zM408 557h491l-104 676l-11 121z" />
<glyph unicode="B" horiz-adv-x="1295" d="M28 0l9 87l148 30l161 1281l-133 23l12 101h229q75 0 149.5 7.5t155.5 7.5q117 0 201 -26.5t138 -71t79.5 -102t26.5 -119.5v-8q0 -77 -20 -139q-20 -65 -59 -115.5t-95 -86.5t-126 -59q62 -9 115 -36t92 -68.5t61.5 -96.5t23.5 -119v-14q0 -84 -22 -150 q-24 -72 -69 -128t-107.5 -96t-138 -66t-161 -38t-175.5 -12q-29 0 -62.5 2t-68 5t-67 5t-59.5 2h-238zM388 127q14 -6 37.5 -9.5t50 -6t51 -3.5t39.5 -1q93 0 169.5 19t131.5 62t85 112q28 65 27 156v12q-3 130 -72.5 193.5t-220.5 63.5q-78 0 -135 -2.5t-89 -4.5zM479 852 q31 -2 67 -2h18q46 0 88 1q74 0 138.5 20t112 61.5t74.5 105.5q25 60 25 142v12q-1 58 -17 100.5t-50.5 71t-89 42.5t-133.5 14q-11 0 -31.5 -0.5t-43.5 -1.5t-46.5 -3.5t-41.5 -5.5z" />
<glyph unicode="C" horiz-adv-x="1225" d="M92 627v20q0 126 24 238q26 121 74.5 222t117.5 181t152 135.5t178 85t196 29.5q68 0 123 -5t98.5 -12t76.5 -15t57 -14l38 -11l-66 -368h-122l-24 262q-14 9 -31.5 17.5t-42 14.5t-57.5 9.5t-76 3.5q-95 0 -169.5 -36.5t-130.5 -97t-94.5 -140t-62.5 -165t-34 -171.5 q-9 -79 -9 -148v-14q1 -66 10 -132.5t26 -127t44 -112.5t64 -90.5t85 -60.5t108 -22q34 0 74 5.5t77 18t67.5 32t46.5 47.5l5 14q5 15 12.5 36.5t16.5 47t16.5 47.5t12.5 36.5t5 15.5l124 -1l-40 -329q-26 -9 -69 -24t-101 -29.5t-130.5 -25t-156.5 -10.5q-92 0 -165.5 26 t-130 71.5t-97.5 107.5t-67 133.5t-39 149t-14 155.5z" />
<glyph unicode="D" horiz-adv-x="1434" d="M26 0l10 87l148 30l162 1281l-133 23l12 101h297q66 1 132 8.5t137 7.5q154 0 263 -44t178.5 -125t103 -194.5t35.5 -252.5v-20q0 -121 -22 -234q-24 -122 -71.5 -227.5t-117 -191t-157.5 -145.5t-193 -92q-96 -29 -203 -28h-21t-25 1t-29.5 2t-30.5 2t-27 2q-17 1 -42 3 t-53 3t-55.5 2t-48.5 1h-249zM390 132q22 -8 54.5 -13.5t67 -9t67.5 -6t57 -2.5q96 7 172.5 43t135 94.5t100.5 135t68 163.5t38 181q11 86 11 172v15q-2 144 -27 242.5t-76.5 159.5t-131.5 88t-193 27q-21 0 -46.5 -1.5t-51.5 -4.5t-48.5 -7t-37.5 -8z" />
<glyph unicode="E" horiz-adv-x="1232" d="M25 0l11 87l149 29l160 1282l-133 23l12 101h934l-8 -312h-111l-47 189l-437 15l-72 -559l448 8l-13 -159l-447 17l-83 -604l547 24l119 211l109 -30l-88 -322h-1050z" />
<glyph unicode="F" horiz-adv-x="1164" d="M28 0l8 88l149 29l160 1281l-133 23l12 101h976l-23 -313h-125l-29 184l-472 19l-68 -558l471 9l-13 -161l-470 18l-82 -601l269 -31l-8 -88h-622z" />
<glyph unicode="G" horiz-adv-x="1345" d="M100 627v28q0 122 23 230q26 121 74.5 222t117 181t151.5 135.5t178 85t196 29.5q77 0 139.5 -6t112 -14.5t87 -18t64.5 -17.5l39 -11l-58 -297h-131l-22 183q-16 13 -37 24.5t-51 20t-70.5 13.5t-94.5 5q-96 0 -171 -36t-131 -96.5t-95 -139.5t-63 -165t-34 -173 q-9 -78 -9 -148v-14q1 -66 10 -132t27 -126.5t45.5 -113t65.5 -91.5t87.5 -61t111.5 -22q35 0 73.5 3.5t77 13.5t74 27.5t64.5 46.5l57 397l-233 17l13 117h447l-90 -630q-29 -3 -58.5 -12t-71.5 -21q-38 -11 -84.5 -24.5t-99.5 -25t-111 -19.5t-118 -8q-89 0 -160.5 26 t-127 71.5t-95.5 107.5t-66 133.5t-39 149t-14 155.5z" />
<glyph unicode="H" horiz-adv-x="1538" d="M28 0l10 87l147 30l161 1281l-133 23l12 101h491l-11 -101l-154 -23l-70 -554h649l70 554l-151 23l10 101h495l-12 -101l-138 -23l-161 -1280l152 -31l-9 -87h-518l8 88l164 30l74 596h-650l-75 -597l158 -29l-8 -88h-511z" />
<glyph unicode="I" horiz-adv-x="708" d="M28 0l9 87l148 30l161 1281l-133 23l12 101h490l-11 -101l-153 -23l-162 -1281l158 -29l-8 -88h-511z" />
<glyph unicode="J" horiz-adv-x="726" d="M-152 -256q67 19 127 56.5t107.5 85t79 99.5t42.5 101q32 146 54 308t39.5 331t33.5 339.5t35 333.5l-141 23l14 101h490l-11 -101l-155 -22q-18 -166 -35 -322.5t-32 -295.5t-29 -258t-25.5 -210.5t-21.5 -152.5t-18 -85q-32 -102 -88.5 -175.5t-126.5 -123.5 t-148.5 -79t-154.5 -42z" />
<glyph unicode="K" horiz-adv-x="1366" d="M28 0l9 87l148 30l161 1281l-133 23l12 101h490l-11 -101l-154 -23l-89 -710l611 710l-118 23l12 101h420l-14 -101l-104 -23l-525 -569q25 -43 57.5 -99t65.5 -112t63.5 -107.5t51.5 -85.5q45 -74 76.5 -124.5t54.5 -83.5t40 -51.5t33 -27.5l130 -44l-14 -94h-278 q-20 3 -47.5 40.5t-57.5 91.5t-60 113.5t-54 106.5q-19 36 -42.5 80.5t-48.5 91t-49.5 91t-44.5 80.5l-182 -198l-48 -380l158 -29l-8 -88h-511z" />
<glyph unicode="L" horiz-adv-x="1182" d="M29 0l8 88l148 29l161 1281l-133 23l12 101h524l-11 -101l-188 -23l-161 -1281l464 11l139 332l119 -23l-96 -437h-986z" />
<glyph unicode="M" horiz-adv-x="1876" d="M-54 0l10 88l160 29l317 1281l-161 23l12 101h447l164 -1044l15 -167l65 167q52 126 110 257.5t117 264.5t117 264.5t111 257.5h424l-11 -101l-165 -23l-25 -1280l154 -30l-9 -88h-533l9 88l176 28l37 901l30 403l-137 -355l-471 -1068l-112 -15l-172 1059l-61 377 l-72 -387l-212 -914l187 -29l-9 -88h-512z" />
<glyph unicode="N" horiz-adv-x="1518" d="M32 0l8 87l136 28l170 1283l-147 23l17 101h348l464 -1099l71 -233l144 1208l-151 23l12 101h453l-10 -101l-145 -23l-203 -1398h-195l-470 1104l-62 222l-127 -1209l162 -29l-9 -88h-466z" />
<glyph unicode="O" horiz-adv-x="1383" d="M119 619v21q1 120 21 231q22 120 65 222.5t105.5 185.5t140.5 141.5t169 90t192 31.5q127 0 220 -50.5t155 -136.5t93 -200.5t33 -243.5v-22q0 -121 -20 -231q-22 -120 -65.5 -223.5t-106 -187.5t-140 -143.5t-169 -91.5t-192.5 -32q-127 0 -220.5 51.5t-155 139 t-92.5 203.5t-33 245zM327 646q2 -120 23 -220.5t61 -173t99 -112.5t138 -40q98 0 182 58.5t144 161.5q60 104 94 247q31 131 31 284v28q-2 122 -23 221t-61 169.5t-99.5 109t-137.5 38.5q-98 0 -182 -57t-145 -159.5t-94 -244.5q-30 -130 -30 -282v-28z" />
<glyph unicode="P" horiz-adv-x="1239" d="M28 0l9 87l148 30l161 1281l-133 23l12 101h255q36 0 70.5 2.5t69.5 6t71.5 6t75.5 2.5q220 0 339 -96t122 -295v-16q0 -89 -20 -165q-22 -83 -62.5 -150.5t-97.5 -118.5t-126 -85.5t-148.5 -52t-163.5 -17.5q-67 0 -105 1t-65 3l-51 -430l200 -29l-8 -88h-553zM455 677 q46 -8 87 -11t78 -3q108 1 182.5 31.5t121 90t67.5 146t23 200.5v11q0 64 -11 114q-12 55 -44 92q-33 38 -87 56q-49 17 -122 16h-16q-19 0 -42 -2t-48 -4.5t-49 -6.5t-44 -8z" />
<glyph unicode="Q" horiz-adv-x="1389" d="M115 620v21q0 121 21 231q22 120 65 222.5t105.5 185.5t140.5 141.5t169 90t192 31.5q127 0 220 -50.5t155 -136.5t93 -200.5t33 -243.5v-24q0 -168 -40 -316q-43 -159 -122 -281t-189.5 -200.5t-243.5 -100.5q4 -59 28.5 -93.5t63 -51.5t88.5 -21.5t105 -4.5 q20 0 47.5 3t56.5 8.5t57 13.5t50 18l2 -138q-18 -15 -48.5 -30t-68 -27.5t-80.5 -20t-86 -7.5q-78 0 -147.5 21t-119 63.5t-72.5 106.5q-14 39 -14 84q0 32 7 68q-119 7 -206 60.5t-144.5 140.5t-86.5 199.5t-31 237.5zM323 647q2 -120 23 -220.5t61 -173t99 -112.5 t138 -40q98 0 182 58.5t144.5 162t93.5 246.5q31 131 31 284v28q-2 122 -23 221t-61 169.5t-99.5 109t-137.5 38.5q-98 0 -182 -57t-145 -159.5t-94 -243.5q-30 -130 -30 -283v-28z" />
<glyph unicode="R" horiz-adv-x="1352" d="M47 0l9 87l129 30l161 1281l-133 23l12 101h272q60 0 120 8t120 8q127 0 217.5 -20.5t148.5 -62.5t86 -106.5t30 -152.5v-14q-1 -83 -23 -157q-24 -80 -72 -145t-119.5 -112.5t-162.5 -73.5q23 -20 49.5 -56t51.5 -77.5t46.5 -84t36.5 -74.5q31 -66 52.5 -114t39 -82 t33.5 -55t35.5 -33t45 -16t62.5 -4l-5 -98h-233q-21 0 -40 12t-40.5 43.5t-47 86.5t-59.5 140q-18 45 -36.5 91t-38 89t-39.5 81t-41 66t-43 44.5t-44 17.5q-37 -1 -71 -1h-112l-63 -553l185 -29l-8 -88h-511zM460 789q17 -1 47.5 -2t62.5 -1.5t61 -0.5t44 1q90 6 155 40 t106 88q42 54 60 122q17 62 17 129v15q-2 59 -16 103.5t-48 74.5t-92.5 45.5t-149.5 15.5q-11 0 -31.5 -1t-44.5 -3t-47.5 -4.5t-39.5 -5.5z" />
<glyph unicode="S" horiz-adv-x="1083" d="M54 65l42 282h120l25 -193q20 -14 47 -25t57 -19t61.5 -12t61.5 -4q48 0 101.5 13.5t99.5 43t77.5 76.5t35.5 114v16q0 51 -16 93q-19 49 -53 89.5t-80 75t-98 66.5q-61 38 -121.5 82t-108.5 98t-78.5 119.5t-31.5 146.5v9q1 88 37 160q38 76 104.5 130.5t154.5 85 t186 30.5q72 0 130 -8t103.5 -20.5t78 -27.5t53.5 -29l-47 -263h-109l-28 180q-30 22 -84 36.5t-114 14.5q-45 0 -91.5 -12.5t-85 -39.5t-62.5 -69t-24 -100q0 -62 20 -112t55 -92t82 -78.5t101 -69.5q60 -38 118.5 -78t105 -89t75.5 -109.5t31 -139.5v-10q0 -101 -37 -182 q-39 -85 -109.5 -144.5t-167 -91t-209.5 -31.5q-70 0 -135.5 8.5t-120 21.5t-94.5 28.5t-58 29.5z" />
<glyph unicode="T" horiz-adv-x="1234" d="M83 1051l77 471h1148l-67 -471h-111l7 342l-321 21l-166 -1297l250 -23l-7 -94h-700l9 94l244 23l165 1297l-316 -20l-96 -341z" />
<glyph unicode="U" horiz-adv-x="1382" d="M127 1422l12 100h491l-11 -100l-153 -25l-104 -786q-6 -56 -9 -103q-2 -35 -2 -68v-22q3 -162 76.5 -244.5t204.5 -82.5q171 0 270.5 136t129.5 399l103 771l-134 24l11 101h434l-12 -101l-124 -23l-104 -771q-23 -177 -72 -300t-125 -200.5t-178 -112t-230 -34.5 q-110 0 -194 31.5t-141.5 89.5t-88 141t-32.5 186q0 39 1.5 79.5t6.5 85.5l107 805z" />
<glyph unicode="V" horiz-adv-x="1226" d="M71 1421l10 101h488l-10 -101l-152 -23l135 -947l27 -276l94 276l413 947l-136 24l10 100h415l-10 -100l-106 -23l-641 -1408l-178 -12l-236 1419z" />
<glyph unicode="W" horiz-adv-x="1788" d="M28 1421l12 101h473l-11 -101l-156 -19l117 -963l36 -264l57 199l343 906l-14 121l-119 20l11 101h483l-20 -101l-150 -21l104 -961l18 -264l74 227l406 996l-135 23l11 101h429l-15 -101l-121 -23l-599 -1408h-207l-115 1020l-387 -1020h-205l-197 1408z" />
<glyph unicode="X" horiz-adv-x="1297" d="M-63 0l11 88l121 28l499 651l-301 628l-138 26l10 101h522l-11 -101l-145 -23l200 -503l338 503l-140 23l12 101h471l-10 -101l-137 -23l-470 -621l332 -660l153 -29l-9 -88h-542l8 88l151 28l-234 526l-360 -525l149 -30l-8 -87h-472z" />
<glyph unicode="Y" horiz-adv-x="1178" d="M60 1421l10 101h498l-12 -101l-161 -23l226 -557l36 -127l72 126l341 558l-140 23l11 101h417l-11 -101l-101 -23l-523 -807l-61 -474l196 -29l-8 -88h-607l9 88l215 29l61 474l-363 807z" />
<glyph unicode="Z" horiz-adv-x="1192" d="M-5 89l811 1123l167 195l-570 -7l-97 -248l-121 24l57 346h942l25 -86l-813 -1136l-151 -192l635 25l128 255l123 -32l-93 -356h-1016z" />
<glyph unicode="[" horiz-adv-x="855" d="M177 -49q0 26 1 53t3 57q5 88 17.5 197.5t29.5 231.5t37.5 251.5t41 258t39 252t33.5 232.5q9 72 24.5 120.5t42 77.5t67 41.5t99.5 12.5q33 0 77.5 -7.5t85.5 -16.5q48 -11 97 -23l-13 -88h-275l-223 -1656q31 0 66.5 -0.5t71 -0.5t70.5 -0.5t67 -0.5l-11 -88 q-34 -10 -65.5 -18.5t-64 -15t-67.5 -10t-76 -3.5q-47 0 -80.5 7t-54.5 23.5t-30.5 44t-9.5 68.5z" />
<glyph unicode="\" horiz-adv-x="854" d="M122 1597h175l577 -1959h-176z" />
<glyph unicode="]" horiz-adv-x="855" d="M32 -133l13 88h275l223 1656q-31 0 -66.5 0.5t-71 0.5t-70.5 0.5t-67 0.5l11 88q34 10 65.5 18.5t64 15t67.5 10t76 3.5q47 0 80.5 -7t54.5 -23.5t30.5 -44t9.5 -68.5q0 -26 -1 -53t-3 -57q-5 -88 -17.5 -197.5t-29.5 -231.5t-37.5 -251.5t-41 -258t-39 -252 t-33.5 -232.5q-9 -72 -24.5 -120.5t-42 -77.5t-67 -41.5t-99.5 -12.5q-33 0 -77.5 7.5t-85.5 16.5q-48 11 -97 23z" />
<glyph unicode="^" horiz-adv-x="1363" d="M185 413l392 1118h204l397 -1118h-161l-337 905l-336 -905h-159z" />
<glyph unicode="_" horiz-adv-x="1335" d="M-111 -338l20 151h1378l-20 -151h-1378z" />
<glyph unicode="`" horiz-adv-x="541" d="M48 1595l155 148l288 -432l-67 -60q-21 9 -52.5 30t-68 50t-75 63.5t-73 69.5t-63 69t-44.5 62z" />
<glyph unicode="a" horiz-adv-x="1175" d="M82 412q0 77 19.5 163t57.5 169.5t93.5 159.5t127.5 133.5t160.5 91.5t191.5 34q50 0 103.5 -10.5t95.5 -24.5l121 34l-131 -973q-5 -41 6 -58.5t24 -17.5q14 0 33.5 9t54.5 37l31 -54q-5 -9 -24.5 -30t-49.5 -42t-69 -37t-82 -16q-30 0 -55 7.5t-42 23.5t-25.5 42 t-6.5 62l7 66q-29 -37 -65.5 -73t-78.5 -64.5t-89 -46t-96 -17.5q-84 0 -143.5 32.5t-97 90t-54.5 136.5t-17 173zM293 435q0 -73 8 -130.5t25.5 -98t44 -62t64.5 -21.5q43 0 87.5 22t85.5 55.5t76 73.5t60 75l86 660q-27 17 -59.5 24t-69.5 7q-71 0 -129 -28t-103 -75 t-78.5 -108t-55 -128.5t-32 -136t-10.5 -129.5z" />
<glyph unicode="b" horiz-adv-x="1189" d="M123 -20l197 1504l-95 43l21 84l245 39l51 -27l-83 -621q24 31 55.5 60t70 51.5t82.5 36t94 13.5q87 0 151 -32.5t106 -90t62.5 -137t20.5 -173.5q0 -78 -19 -164t-56.5 -169t-92 -159t-125.5 -133t-158 -91t-188 -34q-31 0 -64 4t-64.5 10t-60 14t-50.5 16zM343 142 q30 -23 68 -31.5t82 -8.5q69 0 125.5 28.5t101 76.5t76.5 110.5t53.5 131t31.5 137.5t10 131q0 145 -44.5 223.5t-122.5 78.5q-45 0 -88.5 -17.5t-81 -45t-68 -60.5t-50.5 -64z" />
<glyph unicode="c" horiz-adv-x="882" d="M76 431q0 77 17 161t50.5 165.5t83 155t115.5 129t147.5 88.5t178.5 33q27 0 57 -3.5t59 -9.5t56.5 -15t48.5 -20l-59 -199q-5 5 -11.5 9t-11.5 8q-43 35 -90.5 59t-95.5 24q-74 0 -135 -36.5t-104.5 -107t-67 -174.5t-23.5 -238q0 -89 14.5 -153t41 -105.5t64 -61 t83.5 -19.5q37 0 68.5 6.5t62 20.5t63.5 35.5t74 51.5l40 -82q-18 -22 -51 -51.5t-79.5 -56.5t-105.5 -46t-131 -19q-85 0 -151.5 30.5t-112.5 88.5t-70.5 141.5t-24.5 190.5z" />
<glyph unicode="d" horiz-adv-x="1182" d="M82 412q0 77 19.5 163t57 169.5t93 159.5t127.5 133.5t160.5 91.5t191.5 34q32 0 67.5 -5t69.5 -13l51 337l-125 43l21 83l271 42l53 -27l-208 -1434q-5 -36 1 -56t21 -20q13 0 32.5 9t54.5 37l31 -53q-6 -9 -26 -30t-50 -42.5t-68 -37.5t-80 -16q-61 0 -93 32 q-30 30 -30 97v9l-1 23q-24 -31 -56.5 -60t-72 -51.5t-85 -36t-96.5 -13.5q-84 0 -146.5 32.5t-103.5 90t-61 136.5t-20 173zM293 425q0 -146 42 -224t115 -78q44 0 87 16t80.5 41.5t69 57t52.5 61.5l106 699q-29 24 -65.5 33t-78.5 9q-71 0 -129 -28.5t-103.5 -76.5 t-78.5 -111t-54.5 -131t-32 -137.5t-10.5 -130.5z" />
<glyph unicode="e" horiz-adv-x="1052" d="M85 430q2 95 24 186t60 172.5t91 150t118 118.5t140.5 78t158.5 28q73 0 126.5 -19t89 -53t53 -79.5t17.5 -98.5q0 -78 -35.5 -141t-93 -113t-130.5 -87t-146.5 -61t-141.5 -37t-116 -14q-2 -19 -2 -41q0 -14 1 -29q2 -38 11 -76t25 -73t41 -62t59 -43t79 -16 q77 0 165 34t173 113l47 -84q-21 -30 -60.5 -65t-93 -66t-119.5 -51.5t-139 -20.5q-107 0 -184 38t-126 101t-71 144q-21 74 -21 153v14zM305 570q40 2 89 12.5t98.5 30t97 47t84 63t58.5 79t22 94.5q-1 78 -35.5 113.5t-89.5 35.5q-51 0 -93 -23.5t-76.5 -62t-61 -88.5 t-46 -103t-31 -104.5t-16.5 -93.5z" />
<glyph unicode="f" horiz-adv-x="700" d="M-209 -500l53 169q5 -2 24.5 -8.5t44.5 -13t51 -11.5t45 -5q24 0 43.5 18.5t34 51t24.5 76.5t17 95l138 1139h-138l15 76l149 62l12 71q15 93 56.5 174.5t98.5 143t126 97t140 35.5q40 0 80 -4.5t78 -21.5l-59 -168q-10 7 -23 15.5t-30.5 16t-39.5 12t-49 4.5 q-38 0 -68 -20.5t-51.5 -57.5t-36 -88t-22.5 -113l-12 -90h234l-17 -144h-235l-133 -1061q-13 -103 -47 -188t-84.5 -145.5t-115 -94.5t-138.5 -35h-21q-40 0 -76 3q-45 4 -68 10z" />
<glyph unicode="g" horiz-adv-x="1156" d="M82 412q0 77 19.5 163t57.5 169.5t93.5 159.5t127.5 133.5t160.5 91.5t191.5 34q61 0 118.5 -13t99.5 -29l122 42l-192 -1240q-12 -79 -43 -142t-74.5 -111t-96.5 -81.5t-109 -55t-112 -31.5t-106 -10q-33 0 -66 3t-62.5 8t-53.5 11.5t-39 12.5l50 186q21 -10 50.5 -21 t65 -20.5t74.5 -15.5t78 -6q63 0 104 8.5t66.5 31.5t39.5 63t24 102l45 275q-25 -29 -57 -56t-70.5 -48t-82 -33.5t-92.5 -12.5q-84 0 -146.5 32.5t-103.5 90t-61 136.5t-20 173zM293 425q0 -146 42.5 -224t114.5 -78q45 0 87.5 16.5t80.5 42t69.5 57t52.5 61.5l102 701 q-29 22 -64.5 30.5t-76.5 8.5q-71 0 -129 -28.5t-103 -76.5t-78.5 -111t-55 -131t-32 -137.5t-10.5 -130.5z" />
<glyph unicode="h" horiz-adv-x="1241" d="M117 0l193 1482l-119 43l17 83l272 42l52 -27l-94 -711q39 52 85.5 98t99 80t109.5 53.5t116 19.5q52 0 94 -15.5t72 -51t46 -93t16 -142.5q0 -37 -5 -81.5t-12.5 -91.5t-16.5 -94t-17 -89q-13 -77 -26 -159t-19 -159q-2 -36 3 -55.5t19 -19.5q16 0 39 11t67 44l31 -53 q-6 -10 -28 -32.5t-55 -45t-75.5 -39.5t-88.5 -17q-63 0 -97 30q-30 27 -30 88v15q2 34 7 74.5t12 83t15 86.5t15 86q8 44 18 95.5t18.5 104.5t14 106t5.5 100q0 54 -9 84.5t-24.5 46t-36 19.5t-43.5 4q-39 0 -83 -19t-88.5 -52t-88 -78.5t-80.5 -98.5l-100 -755h-200z" />
<glyph unicode="i" horiz-adv-x="642" d="M139 1031l18 81l306 51l49 -24l-139 -950q-3 -19 -3 -33q0 -43 26 -43q16 0 40 13t66 53l32 -54q-7 -11 -29.5 -35t-55.5 -48.5t-74.5 -43t-87.5 -18.5q-63 0 -97 30q-30 26 -30 85q0 9 1 18q4 60 16.5 149t29.5 200.5t37.5 242t40.5 274.5zM315 1503q0 30 13 57t34 48 t47 33t52 12q28 0 51 -9t39.5 -24t25 -35.5t8.5 -43.5q0 -30 -12.5 -58t-33.5 -49.5t-48.5 -34.5t-58.5 -13q-24 0 -45.5 9.5t-37 25t-25 37t-9.5 45.5z" />
<glyph unicode="j" horiz-adv-x="647" d="M-211 -481l36 82q7 -3 17 -5.5t20.5 -4t19.5 -2t13 -0.5q73 0 123.5 40.5t84.5 107t53 152.5t29 176l98 915l-156 51l18 81l317 51l48 -24l-130 -1139q-15 -128 -55 -224.5t-99 -162t-134.5 -98.5t-160.5 -33q-48 0 -86.5 9.5t-55.5 27.5zM315 1503q0 30 13 57t34 48 t47 33t52 12q28 0 51 -9t39.5 -24t25 -35.5t8.5 -43.5q0 -30 -12.5 -58t-33.5 -49.5t-48.5 -34.5t-58.5 -13q-24 0 -45.5 9.5t-37 25t-25 37t-9.5 45.5z" />
<glyph unicode="k" horiz-adv-x="1081" d="M103 0l193 1482l-117 43l16 83l272 42l52 -27l-216 -1623h-200zM399 610l2 1h-2q50 39 95.5 71t86.5 65t79.5 70.5t74.5 86.5q16 22 25.5 42t14.5 38.5t8 36t6 33.5q5 28 19 48.5t33 34t41 20t43 6.5q43 0 74 -27.5t33 -70.5q1 -26 -7.5 -53.5t-28.5 -56.5 q-35 -51 -90 -100.5t-115 -93.5t-117.5 -80t-96.5 -60l259 -403q27 -42 59.5 -68.5t55.5 -26.5q20 0 50 14t62 45l34 -61q-15 -23 -41 -48t-60.5 -45.5t-75 -34t-82.5 -13.5q-43 0 -84.5 25t-73.5 84z" />
<glyph unicode="l" horiz-adv-x="607" d="M140 115q0 14 1.5 36t4.5 41l183 1290l-123 43l21 83l268 42l48 -27l-201 -1434q-5 -36 1 -56t20 -20q7 0 16.5 2.5t22.5 9t29.5 19.5t38.5 34l31 -53q-6 -11 -28 -35t-54 -48.5t-73.5 -43t-86.5 -18.5q-61 0 -90 31t-29 104z" />
<glyph unicode="m" horiz-adv-x="1885" d="M133 0l130 963l-99 59l18 89l247 52l48 -24l-19 -212q40 49 87.5 92.5t99.5 75t107.5 50t111.5 18.5q48 0 86.5 -13t67 -42t45.5 -76.5t22 -116.5q38 52 84 97t97 78.5t105 53t110 19.5q49 0 91 -17t72.5 -53.5t47.5 -93.5t17 -138q0 -36 -4.5 -79.5t-11.5 -90t-15 -94 t-15 -91.5q-13 -79 -25 -159.5t-17 -158.5q-2 -36 2.5 -55.5t18.5 -19.5q8 0 17.5 2.5t22 9.5t29 20t39.5 33l31 -53q-7 -11 -29 -35t-54.5 -48.5t-74 -43t-87.5 -18.5q-63 0 -94 31q-28 28 -28 88v12q4 74 16 162t26 177q7 42 15 92t15.5 102.5t12.5 104.5t5 99 q0 54 -8 84.5t-22 45.5t-32.5 19t-38.5 4q-36 0 -77 -18.5t-83 -50.5t-83 -75.5t-77 -93.5q-5 -63 -13.5 -130.5t-17.5 -127.5l-64 -505h-203l56 443q7 44 14.5 95.5t13.5 104.5t9.5 106t3.5 100q0 54 -7 84.5t-20.5 46t-34 19.5t-46.5 4q-38 0 -81.5 -18.5t-88 -51.5 t-88 -77.5t-80.5 -96.5l-103 -759h-200z" />
<glyph unicode="n" horiz-adv-x="1260" d="M133 0l130 963l-98 59l18 89l247 52l48 -24l-20 -212q40 49 87.5 92.5t100 75t108 50t111.5 18.5q52 0 94 -15.5t71.5 -51t45.5 -93t16 -142.5q0 -37 -5 -81.5t-13 -91.5t-17 -94t-16 -89q-14 -77 -27 -159t-17 -159q-2 -36 2.5 -55.5t18.5 -19.5q13 0 32.5 9t54.5 37 l31 -53q-6 -9 -26 -30t-51 -42.5t-69.5 -37.5t-81.5 -16q-63 1 -97 31q-30 27 -30 85q0 9 1 18q2 34 7 74.5t12 83t14.5 86.5t15.5 86q8 44 17.5 95.5t18 104.5t14.5 106t6 100q0 54 -8 84.5t-22.5 46t-35.5 19.5t-47 4q-38 0 -81.5 -18.5t-88 -51.5t-88 -77.5t-80.5 -96.5 l-103 -759h-200z" />
<glyph unicode="o" horiz-adv-x="1145" d="M85 439v18q1 82 17 162q18 89 53 169.5t86 149t115 118.5t139 78.5t160 28.5q96 0 169.5 -31t124 -90t77.5 -144.5t29 -194.5v-10q0 -86 -17 -170q-18 -89 -53 -169.5t-86 -148.5t-115 -118t-139.5 -78.5t-160.5 -28.5q-96 0 -169.5 31t-123.5 89.5t-77 144t-29 194.5z M299 441q2 -160 57 -249.5t163 -89.5q57 0 103 26.5t82 72t62.5 105.5t43.5 126q16 66 24 136q7 61 6 119v15q-2 159 -57.5 248.5t-163.5 89.5q-57 0 -103 -26.5t-82 -71.5t-62 -105t-43 -126.5t-25 -136.5q-6 -55 -5 -106v-27z" />
<glyph unicode="p" horiz-adv-x="1162" d="M37 -520l203 1500l-109 52l18 79l258 52l47 -24l-14 -132q24 30 54.5 58t68 50t80.5 35t92 13q87 0 151 -32.5t106 -90t63 -137t21 -173.5q0 -78 -19.5 -164t-56.5 -169t-92 -159t-126 -133t-158 -91t-188 -34q-32 0 -66 4t-67 11l-71 -515h-195zM323 137 q29 -20 65.5 -27.5t78.5 -7.5q69 0 125.5 28.5t101 76.5t76.5 110.5t53.5 131t31.5 137.5t10 131q0 145 -44.5 223.5t-122.5 78.5q-42 0 -82.5 -15.5t-76 -40t-65.5 -54.5t-52 -59z" />
<glyph unicode="q" horiz-adv-x="1158" d="M82 412q0 77 19.5 163t57 169.5t93 159.5t127.5 133.5t160.5 91.5t191.5 34q27 0 56.5 -3.5t58 -9.5t54.5 -13.5t47 -14.5l95 11l-190 -1443q-2 -13 -1 -26.5t4 -24.5t7.5 -18t10.5 -7q8 0 17.5 3t22.5 10.5t29.5 20t38.5 32.5l31 -54q-7 -11 -29.5 -34.5t-56 -48 t-76 -43t-88.5 -18.5q-62 0 -91 32q-26 28 -26 90v13l66 509q-25 -29 -56.5 -55t-69 -46.5t-81 -32.5t-91.5 -12q-84 0 -146.5 32.5t-103.5 90t-61 136.5t-20 173zM293 425q0 -146 42 -224t115 -78q43 0 84 15.5t78 39.5t68 54t53 59l94 720q-27 16 -59 22.5t-67 6.5 q-71 0 -129 -28.5t-103.5 -76.5t-78.5 -111t-54.5 -131t-32 -137.5t-10.5 -130.5z" />
<glyph unicode="r" horiz-adv-x="837" d="M133 0l122 962l-100 60l18 89l246 52l48 -24l-21 -229q15 31 46.5 74t77.5 82.5t106 67.5t131 28q15 0 34 -2.5t27 -10.5l-45 -214q-29 15 -103 15q-36 0 -76 -11.5t-79.5 -38.5t-76.5 -71t-65 -109l-90 -720h-200z" />
<glyph unicode="s" horiz-adv-x="869" d="M40 39l37 153q16 -11 43 -24t62 -24.5t76.5 -19.5t86.5 -8q31 0 66 4t64 18.5t48 43t19 77.5q0 41 -15 75t-40 63t-56.5 54.5t-64.5 49.5q-27 20 -63 52.5t-68.5 75.5t-55 95.5t-22.5 113.5q0 75 32 135t85.5 102t124 65t147.5 23q40 0 80.5 -3.5t75.5 -9t61.5 -12 t38.5 -12.5l-38 -169q-5 7 -23 19.5t-47.5 25t-69 22t-86.5 9.5q-32 0 -63 -6t-56.5 -21t-43.5 -41t-22 -66q-1 -11 -1 -23q0 -26 8 -50q12 -34 34.5 -66t53.5 -60t64 -54q39 -30 78.5 -64.5t71.5 -76.5t52.5 -92.5t20.5 -113.5q0 -78 -33 -137.5t-88 -100t-127.5 -61 t-151.5 -20.5q-45 0 -92 5t-87.5 13t-71.5 19t-44 22z" />
<glyph unicode="t" horiz-adv-x="735" d="M131 1015l20 88l123 47q17 19 35 50t36 68t34.5 75.5t29.5 72.5h98l-34 -261h260l-20 -140h-257l-83 -625q-8 -57 -12.5 -102t-4.5 -74q0 -28 3.5 -46t13 -28.5t25.5 -14.5t42 -4q19 0 45.5 8.5t53.5 21t51.5 27t40.5 26.5l18 -78q-18 -22 -53.5 -47.5t-79.5 -47.5 t-93 -36.5t-92 -14.5q-37 0 -70.5 8.5t-58.5 29.5t-39.5 55.5t-14.5 85.5v11.5t1 22.5t4 39.5t8 63.5l90 719h-120z" />
<glyph unicode="u" horiz-adv-x="1210" d="M149 1023l18 89l249 51l48 -24l-69 -550q-6 -45 -11 -84.5t-9.5 -75.5t-7 -71t-2.5 -72q0 -51 10 -84t28.5 -51.5t44.5 -25.5t58 -7q35 0 71 13.5t69.5 35.5t63.5 51t54 60l116 877h199l-125 -964q-2 -18 -2 -32q0 -44 24 -44q8 0 17 2.5t21.5 10t29 20.5t38.5 33l31 -54 q-7 -11 -29.5 -35t-56 -48.5t-75.5 -43t-88 -18.5q-70 0 -98 42q-19 28 -18 67q0 21 5 46l-1 9q-27 -32 -61 -62t-75 -53t-90 -37t-106 -14t-104.5 13.5t-81.5 45.5t-52.5 84.5t-18.5 130.5q0 33 3 74t8.5 86t11.5 91.5t12 91.5l51 366z" />
<glyph unicode="v" horiz-adv-x="1058" d="M36 1058q5 8 22.5 25.5t43.5 35t60 31t72 13.5t62.5 -9t39.5 -26.5t22.5 -43t10.5 -58.5l69 -667l12 -186l112 164q41 66 77.5 129t67.5 130t55 140t40 159q4 25 0 47t-10 41.5t-12 37t-6 33.5q0 56 27.5 82.5t70.5 26.5q67 0 98.5 -53.5t31.5 -147.5q0 -46 -13.5 -99.5 t-37 -110t-53.5 -114.5t-63 -114.5t-66.5 -109.5t-63.5 -99l-230 -323l-153 -12l-59 375l-97 608q-5 31 -15.5 43.5t-24.5 12.5h-2q-27 0 -59 -22z" />
<glyph unicode="w" horiz-adv-x="1701" d="M36 1058q6 8 23.5 25.5t44 35t61 31t73.5 13.5t64 -9t40.5 -26.5t23 -43t10.5 -58.5l53 -682l12 -186l77 172l347 825h179l64 -812l16 -185l108 165q12 18 31.5 52t42 79.5t46 99.5t43 112t33.5 116.5t17 112.5q1 25 -3 47t-9.5 41.5t-10.5 37t-5 33.5q0 56 27 82.5 t70 26.5q68 0 97 -51.5t29 -158.5q0 -70 -27 -153.5t-68.5 -169t-90 -167t-90.5 -148.5l-203 -323l-188 -11l-39 374l-33 377l-8 142l-48 -143l-191 -405l-166 -334l-172 -12l-60 375l-87 608q-6 31 -16.5 43.5t-24.5 12.5h-2q-27 0 -60 -22z" />
<glyph unicode="x" horiz-adv-x="1009" d="M-25 0l434 590l-184 383q-14 29 -26.5 43t-30.5 14q-19 0 -38.5 -13t-30.5 -29l-38 56q5 9 22 28.5t44 40t62 35.5t76 15q34 0 57.5 -6.5t40 -20t27.5 -33t19 -44.5l111 -346l294 442h216l-446 -599l199 -384q14 -29 25.5 -43.5t25.5 -14.5q7 0 16.5 2.5t21.5 10t28.5 20 t37.5 32.5l36 -56q-5 -11 -26.5 -34.5t-54 -47.5t-73.5 -42.5t-85 -18.5q-33 0 -55 7.5t-37 21.5t-24.5 33t-18.5 43l-128 349l-283 -434h-214z" />
<glyph unicode="y" horiz-adv-x="1072" d="M-126 -478l47 160q7 -3 21 -10t35 -13.5t49.5 -12t64.5 -5.5q32 0 76.5 14.5t92.5 50t96.5 94t89.5 146.5h-96l-172 1017q-5 32 -15 44t-25 12q-6 0 -12.5 -1t-15.5 -4.5t-22 -12t-31 -23.5l-29 60q6 9 26 30t49.5 42t66 37t76.5 16q37 0 61.5 -9.5t39.5 -27.5 t22.5 -43.5t11.5 -56.5q0 -2 4 -34t10 -83.5t14 -116.5t15.5 -133t15.5 -133t14 -116t10 -83t4 -34l20 -272l155 310q32 76 66 146.5t62 142t46 146.5t18 162q0 17 -5.5 32.5t-11.5 31t-11.5 32t-5.5 34.5q0 56 28 80t71 24q68 0 99 -49t31 -142q0 -84 -23 -169 t-57.5 -167.5t-76 -160.5t-77.5 -149q-71 -142 -128.5 -249t-105 -186t-85 -134t-68.5 -92q-20 -29 -52.5 -59t-77.5 -54.5t-103 -40.5t-128 -16q-17 0 -41 2.5t-48.5 7t-47 9t-37.5 9.5z" />
<glyph unicode="z" horiz-adv-x="1024" d="M-4 39l642 788l143 156l-411 1q-31 0 -55 -13.5t-41.5 -37t-28.5 -54t-16 -63.5h-83q0 35 4 85t13.5 99t24.5 89t37 54q13 8 28.5 15t52.5 7q59 0 139.5 -4.5t162.5 -10t156.5 -10t121.5 -4.5q23 0 42 5t42 22l57 -60l-650 -807l-126 -139h409q35 0 65.5 12.5t54 34.5 t38.5 51.5t20 63.5h83q0 -35 -6.5 -84t-18 -97t-28.5 -87t-39 -54q-13 -8 -38.5 -14t-62.5 -6t-85 2.5t-100.5 6t-106.5 8t-104 8t-93 6t-73 2.5q-18 0 -43 -4.5t-46 -17.5l-14 -11z" />
<glyph unicode="{" horiz-adv-x="1020" d="M152 714l18 124q49 12 101 28.5t91 36.5q27 14 44.5 30t20.5 33l77 518q12 74 28.5 123t43.5 77.5t67 40t99 11.5q33 0 77.5 -7.5t85.5 -16.5q48 -11 97 -23q-3 -19 -6 -37q-2 -15 -4.5 -29.5t-2.5 -21.5h-276l-96 -631q-6 -41 -32 -70t-66 -54q-11 -7 -34.5 -18.5 t-48.5 -22.5q-29 -13 -62 -29q45 -23 82.5 -46t59.5 -46q23 -23 34.5 -50.5t6.5 -58.5l-95 -630h275q-2 -6 -3.5 -20.5t-3.5 -29.5q-3 -18 -5 -39q-34 -10 -66 -18.5t-64.5 -15t-68 -10t-76.5 -3.5q-47 0 -79.5 7t-53 23.5t-29.5 44t-9 68.5q0 5 4 35t10.5 75t14.5 101 t16 113q19 135 45 303q0 17 -14 34t-38 33q-32 22 -76 39.5t-89 28.5z" />
<glyph unicode="|" horiz-adv-x="854" d="M359 -186v1966h175v-1966h-175z" />
<glyph unicode="}" horiz-adv-x="1020" d="M55 -143q3 19 6 37q2 15 4.5 29.5t2.5 21.5h276l96 631q6 41 32 70t66 54q11 7 34.5 18.5t48.5 22.5q29 13 62 29q-45 23 -82.5 46t-59.5 46q-23 23 -34.5 50.5t-6.5 58.5l95 630h-275q2 6 3.5 20.5t3.5 29.5q3 18 5 39q34 10 66 18.5t64.5 15t68 10t76.5 3.5 q47 0 79.5 -7t53 -23.5t29.5 -44t9 -68.5q0 -5 -4 -35t-10.5 -75t-14.5 -101t-16 -113q-19 -135 -45 -303q0 -17 14 -34t38 -33q32 -22 76 -39.5t89 -28.5l-18 -124q-49 -12 -101 -28.5t-91 -36.5q-27 -14 -44.5 -30t-20.5 -33l-77 -518q-12 -74 -28.5 -123t-43.5 -77.5 t-67 -40t-99 -11.5q-33 0 -77.5 7.5t-85.5 16.5q-48 11 -97 23z" />
<glyph unicode="~" horiz-adv-x="1137" d="M150 849q12 36 41 73.5t70.5 67.5t92.5 49.5t108 19.5q39 0 71.5 -12.5t61 -31.5t54.5 -41.5t51 -41.5t51 -31.5t54 -12.5q67 0 117 32t85 85l72 -75q-11 -41 -40 -79t-70.5 -67t-93 -47t-108.5 -18q-39 0 -71.5 12.5t-61 31.5t-54 41.5t-51 41.5t-51.5 31.5t-55 12.5 q-66 0 -116 -31.5t-85 -84.5z" />
<glyph />
<glyph unicode="&#xa1;" horiz-adv-x="687" d="M81 -434l244 1288h141l-136 -1288h-249zM302 1217q5 34 20.5 61.5t39 47t52 30t58.5 10.5q27 0 49 -8.5t37 -25t21.5 -40t3.5 -53.5q-4 -31 -19 -58.5t-36.5 -47.5t-48.5 -31.5t-55 -11.5q-36 0 -60.5 10t-39.5 27.5t-20 40.5t-2 49z" />
<glyph unicode="&#xa2;" horiz-adv-x="1056" d="M134 431q0 69 13.5 143.5t40 148t66.5 142t92.5 125.5t117.5 98.5t143 60.5l52 209h150l-49 -196q49 -4 99.5 -16.5t87.5 -30.5l-59 -199q-5 5 -11.5 9t-11.5 8q-43 35 -90.5 59t-95.5 24q-74 0 -135 -36.5t-104.5 -107t-67 -174.5t-23.5 -238q0 -89 14.5 -153t41 -105.5 t64 -61t83.5 -19.5q37 0 68.5 6.5t62 20.5t63.5 35.5t74 51.5l40 -82q-17 -20 -44.5 -46t-66.5 -50.5t-88.5 -45t-108.5 -27.5l-37 -199h-150l38 205q-64 15 -114 51t-84.5 92.5t-52.5 131t-18 166.5z" />
<glyph unicode="&#xa3;" horiz-adv-x="1369" d="M-12 74q4 26 27 54t59 51.5t82 38t97 14.5q14 20 26.5 51t23 67t18.5 72.5t13 67.5q11 60 21 123.5t21 129.5h-177l18 133h180l17 104q11 73 37 143.5t63.5 133t86.5 115.5t107 91.5t124 60t138 21.5q43 0 79.5 -3t69 -12t60.5 -25t53 -42l-113 -172q-4 9 -23.5 27.5 t-52 37.5t-76 33.5t-95.5 14.5q-36 0 -75 -18.5t-74 -66t-64.5 -128.5t-46.5 -206q-3 -24 -8 -52t-10 -57h321l-17 -133h-328l-8 -52q-15 -101 -32 -172t-38 -125.5t-47 -100t-59 -96.5q48 -13 96 -30.5t97 -33.5t99.5 -27.5t104.5 -11.5q80 0 135.5 14.5t90 43t50 71.5 t15.5 100q0 20 -7 43.5t-17.5 45.5t-23.5 40.5t-25 29.5l140 131q30 -24 55 -54.5t43.5 -66.5t29 -75.5t10.5 -81.5q0 -35 -7 -74.5t-25.5 -79t-51 -76t-85.5 -64.5t-128.5 -44.5t-178.5 -16.5q-69 0 -135.5 11.5t-130.5 29.5t-124.5 39t-117.5 41q-20 -25 -46.5 -47 t-57 -38.5t-62.5 -26t-63 -9.5q-15 0 -31 3.5t-27.5 14t-17.5 29t-2 47.5z" />
<glyph unicode="&#xa4;" horiz-adv-x="1540" d="M228 1135l114 115l195 -196q53 35 114.5 54.5t130.5 19.5q72 0 136.5 -21.5t118.5 -59.5l191 190l114 -115l-192 -192q35 -52 53.5 -112.5t18.5 -127.5q0 -69 -20 -131.5t-57 -116.5l195 -194l-115 -114l-195 194q-53 -36 -116 -56t-132 -20q-67 0 -128 18.5t-114 52.5 l-194 -194l-115 114l192 192q-38 54 -59.5 118.5t-21.5 136.5q0 71 20.5 134t58.5 117zM493 690q0 -62 22.5 -116.5t62 -95.5t92 -65t112.5 -24t112.5 24t92 65t62 95.5t22.5 116.5t-22.5 116.5t-62 95.5t-92 65t-112.5 24t-112.5 -24t-92 -65t-62 -95.5t-22.5 -116.5z" />
<glyph unicode="&#xa5;" horiz-adv-x="1483" d="M210 1422l11 100h505l-11 -100l-175 -17l231 -427l41 -112l67 119l300 420l-138 17l11 100h467l-11 -99l-136 -28l-422 -533h340l-15 -132h-413l-26 -223h413l-15 -131h-414l-30 -258l223 -30l-9 -88h-623l8 88l219 30l31 258h-410l15 131h410l27 223h-411l14 132h345 l-301 542z" />
<glyph unicode="&#xa6;" horiz-adv-x="854" d="M359 -186v893h175v-893h-175zM359 887v893h175v-893h-175z" />
<glyph unicode="&#xa7;" horiz-adv-x="1194" d="M56 -100l41 330h107l34 -208q25 -30 58.5 -48.5t72 -28.5t79 -13.5t80.5 -3.5q45 0 96.5 14.5t96.5 45t77.5 77t40.5 110.5q6 50 -21 87t-75 67t-110.5 55t-128 52t-127.5 58t-109 72.5t-72 96t-16 128.5q4 36 15 74t28 75.5t39 72.5t48 65q-42 42 -63 95t-13 124 q8 69 37.5 124t73 96.5t97 71t108 48.5t107 27.5t94.5 8.5q70 0 131 -7t110.5 -18t86 -24.5t56.5 -26.5l-38 -302h-98l-54 208q-15 17 -38 29t-52 19.5t-62.5 11t-69.5 3.5q-32 0 -79.5 -8.5t-93.5 -32t-81.5 -66t-43.5 -110.5q-6 -54 21 -94.5t75 -73t111 -60t128.5 -57 t128 -63t109 -78t71.5 -103t16 -137.5q-9 -72 -41.5 -145t-80.5 -133q35 -39 52.5 -87.5t9.5 -111.5q-8 -65 -36 -119.5t-70 -98t-95 -76t-109 -54.5t-112.5 -33t-105.5 -11q-62 0 -131.5 8.5t-131.5 21.5t-110.5 28t-67.5 28zM351 866q-6 -53 15.5 -93t62 -72.5t95 -58.5 t114.5 -51.5t120 -52t112 -58.5q16 30 27 61t14 58q7 57 -13.5 100.5t-59.5 78t-92 62.5t-112 54.5t-119 53.5t-112 59q-19 -32 -33 -68.5t-19 -72.5z" />
<glyph unicode="&#xa8;" horiz-adv-x="809" d="M59 1503q0 30 12 57t32.5 47.5t46.5 33t55 12.5q28 0 51 -9t39 -24t25 -35.5t9 -43.5q0 -30 -12.5 -58t-33.5 -49.5t-49 -34.5t-59 -13q-24 0 -45 9.5t-36.5 25t-25 37t-9.5 45.5zM481 1503q0 30 12 57t32 47.5t46.5 33t55.5 12.5q57 0 90 -33t33 -79q0 -30 -12 -58 t-33 -49.5t-49 -34.5t-59 -13q-24 0 -45.5 9.5t-37 25t-24.5 37t-9 45.5z" />
<glyph unicode="&#xa9;" horiz-adv-x="1768" d="M177 806q0 104 27 200.5t76.5 180.5t118.5 152.5t153 117.5t180.5 76t200.5 27t200.5 -27t180.5 -76t153.5 -117.5t119 -152.5t76.5 -180.5t27 -200.5q0 -105 -27 -201.5t-76.5 -180.5t-119 -152.5t-153.5 -117.5t-180.5 -76t-200.5 -27t-200.5 27t-180.5 76t-153 117.5 t-118.5 152.5t-76.5 180.5t-27 201.5zM297 806q0 -89 22.5 -172t63.5 -155t98.5 -131t128.5 -101.5t152.5 -65.5t170.5 -23t171 23t153 65.5t128.5 101.5t98.5 131t63.5 155t22.5 172t-22.5 171.5t-63.5 154.5t-98.5 131.5t-128.5 101.5t-153 65.5t-171 23.5t-170.5 -23.5 t-152.5 -65.5t-128.5 -101.5t-98.5 -131.5t-63.5 -154.5t-22.5 -171.5zM542 802q-1 90 28 171t84 141.5t134.5 96.5t180.5 36q34 0 69 -3t66.5 -8t57.5 -12t41 -15v-206h-75l-54 120q-22 20 -59 29.5t-86 9.5q-45 0 -86.5 -18.5t-73.5 -55.5t-51.5 -94t-19.5 -133 q-1 -105 23.5 -179.5t63.5 -122t86.5 -70t93.5 -22.5q36 0 68.5 5.5t61 14.5t51 19.5t39.5 19.5l28 -68q-21 -18 -53 -34.5t-70.5 -29t-81.5 -20.5t-88 -8q-90 0 -160 34.5t-118.5 94t-74 138.5t-25.5 169z" />
<glyph unicode="&#xaa;" horiz-adv-x="854" d="M82 1040q0 63 18 127.5t51 124t79.5 111.5t104 90.5t124 61t139.5 22.5q45 0 92.5 -9t81.5 -20l105 38l-122 -694q-1 -25 1.5 -39.5t10.5 -14.5t20.5 3.5t35.5 16.5l23 -39q-3 -6 -20.5 -18.5t-42.5 -25t-55 -22.5t-60 -10q-23 0 -41.5 9.5t-30.5 26t-16.5 39.5t1.5 50 q-20 -23 -44 -45t-55 -40t-68.5 -29t-82.5 -11q-59 0 -105.5 20.5t-78.5 59t-48.5 93.5t-16.5 124zM270 1055q0 -91 33.5 -142t109.5 -51q22 0 45 8t45.5 21t43.5 29.5t39 32.5l81 467q-18 26 -44 40.5t-50 14.5q-80 0 -137 -38.5t-94 -99t-54.5 -135t-17.5 -147.5z" />
<glyph unicode="&#xab;" horiz-adv-x="1866" d="M241 530l22 160l693 396l39 -117l-508 -354l413 -350l-72 -113zM916 530l22 160l693 396l39 -117l-508 -354l413 -350l-72 -113z" />
<glyph unicode="&#xac;" horiz-adv-x="1370" d="M213 720l15 134h961l-62 -532h-179l47 398h-782z" />
<glyph unicode="&#xad;" horiz-adv-x="1127" d="M223 692l18 160h717l-18 -160h-717z" />
<glyph unicode="&#xae;" horiz-adv-x="1768" d="M177 806q0 104 27 200.5t76.5 180.5t118.5 152.5t153 117.5t180.5 76t200.5 27t200.5 -27t180.5 -76t153.5 -117.5t119 -152.5t76.5 -180.5t27 -200.5q0 -105 -27 -201.5t-76.5 -180.5t-119 -152.5t-153.5 -117.5t-180.5 -76t-200.5 -27t-200.5 27t-180.5 76t-153 117.5 t-118.5 152.5t-76.5 180.5t-27 201.5zM297 806q0 -89 22.5 -172t63.5 -155t98.5 -131t128.5 -101.5t152.5 -65.5t170.5 -23t171 23t153 65.5t128.5 101.5t98.5 131t63.5 155t22.5 172t-22.5 171.5t-63.5 154.5t-98.5 131.5t-128.5 101.5t-153 65.5t-171 23.5t-170.5 -23.5 t-152.5 -65.5t-128.5 -101.5t-98.5 -131.5t-63.5 -154.5t-22.5 -171.5zM572 375v74l83 20v665l-83 22v84h144q27 -1 46.5 -0.5t43.5 1t58 2t90 2.5q77 0 135.5 -16.5t98.5 -47t60.5 -73t22.5 -94.5q0 -40 -9.5 -79t-35 -72.5t-71 -59t-118.5 -38.5q49 -28 81 -70.5 t56.5 -86.5t46 -83t51.5 -60q14 -7 30 -9.5t36 -2.5v-78h-162q-19 0 -36 22t-34.5 57t-38 77.5t-46 84t-59.5 77t-78 55.5h-86v-279l101 -20v-74h-327zM798 837q26 -5 65.5 -6.5t78.5 -1.5q38 0 69 13.5t53.5 36t35 52t12.5 62.5q0 43 -13.5 73.5t-38 50t-58.5 28.5t-75 9 q-31 0 -61 -0.5t-68 -9.5v-307z" />
<glyph unicode="&#xaf;" horiz-adv-x="614" d="M39 1424l19 152h512l-20 -152h-511z" />
<glyph unicode="&#xb0;" horiz-adv-x="901" d="M203 1278q1 69 27 128t71 102.5t107 68t134 24.5q70 0 129.5 -25.5t103 -69.5t67.5 -103t23 -125q-1 -69 -27.5 -128.5t-72.5 -103t-108 -68t-134 -24.5q-70 0 -129 25.5t-102 70t-66.5 103.5t-22.5 125zM345 1278q-1 -42 13 -78.5t39 -63.5t59 -43t74 -16q42 0 77 15 t60.5 42t40 63.5t15.5 80.5q1 42 -13 78.5t-39.5 63.5t-59.5 42.5t-74 15.5q-42 0 -76.5 -15t-60 -42t-40 -63.5t-15.5 -79.5z" />
<glyph unicode="&#xb1;" horiz-adv-x="1368" d="M180 29l17 151h868l-17 -151h-868zM249 692l18 160h225l139 -11q2 40 6.5 83t7.5 82l26 230h179l-26 -230l-29 -164l115 10h254l-18 -160h-255l-112 7q-2 -42 -5.5 -82t-5.5 -82l-27 -241h-180l27 241l26 164l-141 -7h-224z" />
<glyph unicode="&#xb2;" horiz-adv-x="1021" d="M143 798q35 20 93 57.5t125 87t135.5 109t124 122.5t90.5 128t35 126q0 63 -41 104t-122 41q-41 0 -82 -9.5t-77.5 -24.5t-66.5 -34.5t-49 -38.5l-60 71q21 25 58 55t86.5 56t108 43t121.5 17q76 0 133.5 -18.5t96.5 -50.5t58.5 -75t19.5 -92q0 -52 -25 -110t-67.5 -118 t-100 -120t-123 -115t-134.5 -103.5t-136 -85.5l442 29l75 133l100 -20l-63 -261h-727z" />
<glyph unicode="&#xb3;" horiz-adv-x="1021" d="M195 741l12 104q54 -20 114.5 -34t120.5 -14q158 0 240.5 48t95.5 153q4 33 -9 63.5t-38.5 54t-62 37t-80.5 13.5h-11.5t-11.5 -1l-124 -46l-17 107q24 6 64.5 19.5t85.5 34.5q29 14 57 32t50.5 39.5t38 46.5t19.5 54q3 30 -0.5 54t-20 41t-48.5 26.5t-86 9.5 q-33 0 -67.5 -7.5t-67 -20.5t-62.5 -31t-55 -39l-49 86q28 25 67 50t86 44t100.5 31t112.5 12q69 0 123.5 -15.5t91.5 -44t54 -67.5t11 -85q-4 -35 -17.5 -71t-43 -71t-78 -67.5t-123.5 -60.5q91 7 150.5 -13.5t93.5 -55.5t46 -78t8 -81q-8 -66 -45.5 -123t-101.5 -99.5 t-153 -67t-198 -24.5q-29 0 -63 3t-69.5 9.5t-71 17.5t-68.5 27z" />
<glyph unicode="&#xb4;" horiz-adv-x="559" d="M50 1312l317 431l144 -138q-9 -17 -33.5 -46.5t-58.5 -65.5t-74.5 -74t-81.5 -71.5t-79.5 -60t-68.5 -37.5z" />
<glyph unicode="&#xb5;" horiz-adv-x="1364" d="M118 -372l108 730q19 142 43.5 284.5t38.5 299.5q2 36 -3 55.5t-19 19.5q-11 0 -26 -5t-42 -21l-30 53q5 8 24 25.5t47 35.5t64 32t76 14q58 0 90 -28t28 -101q-5 -80 -17.5 -166.5t-26.5 -174.5q-14 -89 -29 -179t-15 -185q0 -56 9 -94t26 -61t42 -33t58 -10q38 0 78 16 t77.5 39.5t70 51.5t55.5 52l112 863h200l-123 -950q-10 -76 22 -76q11 0 26.5 5.5t41.5 21.5l32 -54q-6 -8 -25.5 -25.5t-48 -35.5t-64 -31.5t-73.5 -13.5q-30 0 -54 5.5t-39.5 20.5t-22.5 41.5t-2 68.5q-27 -26 -61 -50.5t-75.5 -44t-91.5 -31.5t-109 -12q-35 1 -67 9.5 t-59 23.5l-58 -385h-188z" />
<glyph unicode="&#xb6;" horiz-adv-x="1364" d="M152 1085q-2 102 28.5 186t98 144t174 93t258.5 33q54 0 102.5 -3t96 -6.5t95.5 -6.5t101 -3h242l-11 -103l-142 -33l-159 -1270l135 -30l-9 -86h-341l171 1384h-207l-180 -1384h-354l8 87l167 30l79 623q-80 2 -145 25.5t-110.5 67t-71 107t-26.5 145.5z" />
<glyph unicode="&#xb7;" horiz-adv-x="687" d="M205 716q4 31 19 58.5t36.5 47.5t48.5 31.5t55 11.5q36 0 60.5 -10t39 -27.5t19.5 -40.5t2 -49q-4 -34 -19.5 -61.5t-39 -47t-52 -30t-58.5 -10.5q-27 0 -49 8.5t-37 25t-22 40t-3 53.5z" />
<glyph unicode="&#xb8;" horiz-adv-x="479" d="M2 -437l16 151q6 -3 17 -6t23.5 -4.5t25.5 -2.5t25 -1q42 0 76 17.5t57.5 50t36.5 78.5t13 103q0 27 -2.5 46.5t-6.5 34.5l49 4l54 -4q15 -21 22.5 -60t7.5 -85q0 -89 -22 -154.5t-60 -109t-89.5 -65t-111.5 -21.5q-40 0 -77 8t-54 20z" />
<glyph unicode="&#xb9;" horiz-adv-x="1021" d="M241 703l12 98l246 24l83 671q-31 -11 -66.5 -19t-71.5 -13.5t-71 -10t-65 -7.5l-10 103q42 11 92.5 25.5t104 33.5t106 44t98.5 58h3l78 -16l-106 -869l236 -24l-12 -98h-657z" />
<glyph unicode="&#xba;" horiz-adv-x="854" d="M91 1085q0 121 43 215.5t110 159t148.5 97.5t158.5 32q80 -1 141 -27.5t102.5 -73.5t62.5 -112t21 -142q0 -122 -41 -216t-107 -158t-148.5 -96.5t-164.5 -30.5q-73 1 -133 26t-103 71t-66.5 110.5t-23.5 144.5zM287 1103q0 -60 11 -108.5t30 -83t45 -54t55 -19.5 q76 -1 124.5 33.5t76.5 89t39 122t11 133.5q0 60 -10 110.5t-29.5 87t-47.5 57t-64 20.5q-47 0 -82.5 -18t-62.5 -47.5t-45.5 -68.5t-29.5 -82.5t-16 -87.5t-5 -84z" />
<glyph unicode="&#xbb;" horiz-adv-x="1866" d="M126 269l508 354l-413 350l72 113l587 -378l-22 -160l-693 -396zM802 269l508 354l-413 350l72 113l587 -378l-22 -160l-693 -396z" />
<glyph unicode="&#xbc;" horiz-adv-x="2506" d="M212 529l12 98l246 24l83 671q-31 -11 -66.5 -19t-71.5 -13.5t-71 -10t-65 -7.5l-10 103q42 11 92.5 25.5t104 33.5t106 44t98.5 58h3l78 -16l-106 -869l236 -24l-12 -98h-657zM800 0l681 1530h160l-681 -1530h-160zM1391 269l563 769h61l97 -83l-475 -595l-62 -81 l374 27l29 235l173 18l-30 -241l171 13l-16 -149h-172l-24 -196h-171l24 196h-504z" />
<glyph unicode="&#xbd;" horiz-adv-x="2506" d="M212 529l12 98l246 24l83 671q-31 -11 -66.5 -19t-71.5 -13.5t-71 -10t-65 -7.5l-10 103q42 11 92.5 25.5t104 33.5t106 44t98.5 58h3l78 -16l-106 -869l236 -24l-12 -98h-657zM801 0l681 1530h160l-681 -1530h-160zM1446 96q35 20 93 57.5t125 87t135.5 109t124 122.5 t90.5 128t35 126q0 63 -41 104t-122 41q-41 0 -82 -9.5t-77.5 -24.5t-66.5 -34.5t-49 -38.5l-60 71q21 25 58 55t86.5 56t108 43t121.5 17q76 0 133.5 -18.5t96.5 -50.5t58.5 -75t19.5 -92q0 -52 -25 -110t-67.5 -118t-100 -120t-123 -115t-134.5 -103.5t-136 -85.5l442 29 l75 133l100 -20l-63 -261h-727z" />
<glyph unicode="&#xbe;" horiz-adv-x="2506" d="M168 567l12 104q54 -20 114.5 -34t120.5 -14q158 0 240.5 48t95.5 153q4 33 -9 63.5t-38.5 54t-62 37t-80.5 13.5h-11.5t-11.5 -1l-124 -46l-17 107q24 6 64.5 19.5t85.5 34.5q29 14 57 32t50.5 39.5t38 46.5t19.5 54q3 30 -0.5 54t-20 41t-48.5 26.5t-86 9.5 q-33 0 -67.5 -7.5t-67 -20.5t-62.5 -31t-55 -39l-49 86q28 25 67 50t86 44t100.5 31t112.5 12q69 0 123.5 -15.5t91.5 -44t54 -67.5t11 -85q-4 -35 -17.5 -71t-43 -71t-78 -67.5t-123.5 -60.5q91 7 150.5 -13.5t93.5 -55.5t46 -78t8 -81q-8 -66 -45.5 -123t-101.5 -99.5 t-153 -67t-198 -24.5q-29 0 -63 3t-69.5 9.5t-71 17.5t-68.5 27zM801 0l681 1530h160l-681 -1530h-160zM1391 269l563 769h61l97 -83l-475 -595l-62 -81l374 27l29 235l173 18l-30 -241l171 13l-16 -149h-172l-24 -196h-171l24 196h-504z" />
<glyph unicode="&#xbf;" horiz-adv-x="1027" d="M49 23q0 67 14.5 121t40.5 98q28 49 66 87t81.5 69.5t89 57.5t87.5 51q38 23 71 45.5t57.5 49t38.5 57t14 69.5q1 51 -3 99t-9 74l129 50l17 -1q11 -17 20.5 -45.5t16 -63t10 -72.5t3.5 -75q0 -45 -21 -84.5t-58.5 -75t-90 -67.5t-115.5 -63q-41 -19 -79.5 -37.5 t-73 -41.5t-65 -53t-57.5 -73q-5 -22 -7 -43t-2 -42q0 -86 28 -151t77 -109t115.5 -66.5t143.5 -22.5q17 0 39 1.5t46 5.5t48 10t45 16l-29 -143q-11 -11 -33 -20.5t-50.5 -17t-60.5 -12t-63 -4.5q-138 0 -230.5 36t-148 95t-79 135t-23.5 156zM479 1288q4 34 20 61.5t39 47 t51.5 30t58.5 10.5q27 0 49 -8.5t37 -25t22 -40t3 -53.5q-4 -31 -18.5 -58.5t-36 -47.5t-48.5 -31.5t-56 -11.5q-36 0 -60.5 10t-39 27.5t-19.5 40.5t-2 49z" />
<glyph unicode="&#xc0;" horiz-adv-x="1342" d="M-120 0l9 87l119 29l707 1406h205l253 -1403l156 -32l-7 -87h-515l5 87l156 29l-50 319h-567l-150 -318l160 -30l-6 -87h-475zM408 557h491l-104 676l-11 121zM492 1880l135 121l263 -342l-68 -48q-36 13 -85.5 42t-98.5 66t-89 79t-57 82z" />
<glyph unicode="&#xc1;" horiz-adv-x="1342" d="M-120 0l9 87l119 29l707 1406h205l253 -1403l156 -32l-7 -87h-515l5 87l156 29l-50 319h-567l-150 -318l160 -30l-6 -87h-475zM408 557h491l-104 676l-11 121zM748 1659l276 342l126 -121q-20 -42 -61.5 -84t-90.5 -78.5t-99 -65t-86 -41.5z" />
<glyph unicode="&#xc2;" horiz-adv-x="1342" d="M-120 0l9 87l119 29l707 1406h205l253 -1403l156 -32l-7 -87h-515l5 87l156 29l-50 319h-567l-150 -318l160 -30l-6 -87h-475zM408 557h491l-104 676l-11 121zM499 1682l308 319h177l212 -319l-71 -59l-239 227l-324 -226z" />
<glyph unicode="&#xc3;" horiz-adv-x="1342" d="M-120 0l9 87l119 29l707 1406h205l253 -1403l156 -32l-7 -87h-515l5 87l156 29l-50 319h-567l-150 -318l160 -30l-6 -87h-475zM408 557h491l-104 676l-11 121zM489 1801q12 32 33 62.5t49.5 54.5t64 38.5t78.5 14.5q50 0 88 -22t71.5 -48.5t65.5 -48.5t70 -22 q30 0 52.5 8.5t39.5 21t30 28t25 29.5l58 -82q-10 -27 -29 -57t-46.5 -55t-64.5 -41.5t-84 -16.5q-54 0 -91.5 21.5t-69 48t-62.5 48.5t-73 23q-49 1 -83.5 -24t-63.5 -63z" />
<glyph unicode="&#xc4;" horiz-adv-x="1342" d="M-120 0l9 87l119 29l707 1406h205l253 -1403l156 -32l-7 -87h-515l5 87l156 29l-50 319h-567l-150 -318l160 -30l-6 -87h-475zM408 557h491l-104 676l-11 121zM524 1840q0 30 13 57t33.5 48t46 33t51.5 12q28 0 51 -9t39 -24.5t24.5 -36t8.5 -43.5q0 -30 -12.5 -58 t-33.5 -49t-49 -33.5t-58 -12.5q-23 0 -44 9.5t-36.5 25t-24.5 36.5t-9 45zM943 1844q0 30 13.5 56.5t35 46.5t47.5 31.5t50 11.5q57 0 89.5 -33t32.5 -79q0 -30 -12 -58t-33 -49.5t-49 -34t-59 -12.5q-24 0 -45 9.5t-36.5 26t-24.5 38t-9 46.5z" />
<glyph unicode="&#xc5;" horiz-adv-x="1342" d="M-120 0l9 87l119 29l701 1394q-86 23 -129.5 81t-43.5 138q0 64 32 114.5t83 85.5t113.5 53.5t122.5 18.5q65 0 116.5 -16.5t87 -46t54.5 -70t19 -87.5q0 -57 -19.5 -102t-53 -79t-77.5 -56.5t-92 -34.5l251 -1390l156 -32l-7 -87h-515l5 87l156 29l-50 319h-567 l-150 -318l160 -30l-6 -87h-475zM408 557h491l-104 676l-11 121zM680 1740q0 -32 10.5 -60.5t30 -49.5t48 -33t64.5 -12q37 0 71.5 10.5t60 33.5t41 58t15.5 85q0 28 -11 53.5t-30.5 44.5t-47.5 30t-61 11q-37 0 -71.5 -12t-61 -34t-42.5 -53.5t-16 -71.5z" />
<glyph unicode="&#xc6;" horiz-adv-x="1818" d="M-164 0l14 87l154 29l701 1283l-291 22l14 101h1326l-8 -292h-111l-47 169l-397 15l-73 -567l401 24l-15 -167l-397 17l-73 -604l511 24l97 190l107 -31l-65 -300h-989l10 87l121 29l42 358h-474l-182 -357l189 -30l-6 -87h-559zM456 596h427l94 795l-114 5z" />
<glyph unicode="&#xc7;" horiz-adv-x="1225" d="M92 627q-2 137 23.5 258t74.5 222t118 181t152 135.5t178 85t196 29.5q68 0 123 -5t98.5 -12t76.5 -15t57 -14l38 -11l-66 -368h-122l-24 262q-14 9 -31.5 17.5t-42 14.5t-57.5 9.5t-76 3.5q-95 0 -169.5 -36.5t-130.5 -97t-94.5 -140t-62.5 -165t-34 -172t-9 -161.5 q1 -66 10 -132.5t26 -127t44 -112.5t64 -90.5t85 -60.5t108 -22q34 0 74 5.5t77 18t67.5 32t46.5 47.5l5 14.5t12.5 36t16.5 47t16.5 47.5t12.5 36.5t5 15.5l124 -1l-40 -329q-22 -8 -56.5 -20t-80 -24.5t-101.5 -23.5t-121 -17q11 -44 11 -101q0 -89 -22 -154.5t-60 -109 t-89.5 -65t-111.5 -21.5q-40 0 -77 8t-54 20l16 151q6 -3 17 -6t23.5 -4.5t25.5 -2.5t25 -1q42 0 76 17.5t57.5 50t36.5 78.5t13 103v18t-1 16q-89 2 -160 29t-126 73t-94.5 107.5t-65 132t-38 147t-13.5 153.5z" />
<glyph unicode="&#xc8;" horiz-adv-x="1232" d="M25 0l11 87l149 29l160 1282l-133 23l12 101h934l-8 -312h-111l-47 189l-437 15l-72 -559l448 8l-13 -159l-447 17l-83 -604l547 24l119 211l109 -30l-88 -322h-1050zM426 1880l135 121l263 -342l-68 -48q-36 13 -85.5 42t-98.5 66t-89 79t-57 82z" />
<glyph unicode="&#xc9;" horiz-adv-x="1232" d="M25 0l11 87l149 29l160 1282l-133 23l12 101h934l-8 -312h-111l-47 189l-437 15l-72 -559l448 8l-13 -159l-447 17l-83 -604l547 24l119 211l109 -30l-88 -322h-1050zM682 1659l276 342l126 -121q-20 -42 -61.5 -84t-90.5 -78.5t-99 -65t-86 -41.5z" />
<glyph unicode="&#xca;" horiz-adv-x="1232" d="M25 0l11 87l149 29l160 1282l-133 23l12 101h934l-8 -312h-111l-47 189l-437 15l-72 -559l448 8l-13 -159l-447 17l-83 -604l547 24l119 211l109 -30l-88 -322h-1050zM433 1682l308 319h177l212 -319l-71 -59l-239 227l-324 -226z" />
<glyph unicode="&#xcb;" horiz-adv-x="1232" d="M25 0l11 87l149 29l160 1282l-133 23l12 101h934l-8 -312h-111l-47 189l-437 15l-72 -559l448 8l-13 -159l-447 17l-83 -604l547 24l119 211l109 -30l-88 -322h-1050zM458 1840q0 30 13 57t33.5 48t46 33t51.5 12q28 0 51 -9t39 -24.5t24.5 -36t8.5 -43.5 q0 -30 -12.5 -58t-33.5 -49t-49 -33.5t-58 -12.5q-23 0 -44 9.5t-36.5 25t-24.5 36.5t-9 45zM877 1844q0 30 13.5 56.5t35 46.5t47.5 31.5t50 11.5q57 0 89.5 -33t32.5 -79q0 -30 -12 -58t-33 -49.5t-49 -34t-59 -12.5q-24 0 -45 9.5t-36.5 26t-24.5 38t-9 46.5z" />
<glyph unicode="&#xcc;" horiz-adv-x="708" d="M28 0l9 87l148 30l161 1281l-133 23l12 101h490l-11 -101l-153 -23l-162 -1281l158 -29l-8 -88h-511zM161 1880l135 121l263 -342l-68 -48q-36 13 -85.5 42t-98.5 66t-89 79t-57 82z" />
<glyph unicode="&#xcd;" horiz-adv-x="708" d="M28 0l9 87l148 30l161 1281l-133 23l12 101h490l-11 -101l-153 -23l-162 -1281l158 -29l-8 -88h-511zM417 1659l276 342l126 -121q-20 -42 -61.5 -84t-90.5 -78.5t-99 -65t-86 -41.5z" />
<glyph unicode="&#xce;" horiz-adv-x="708" d="M28 0l9 87l148 30l161 1281l-133 23l12 101h490l-11 -101l-153 -23l-162 -1281l158 -29l-8 -88h-511zM168 1682l308 319h177l212 -319l-71 -59l-239 227l-324 -226z" />
<glyph unicode="&#xcf;" horiz-adv-x="708" d="M28 0l9 87l148 30l161 1281l-133 23l12 101h490l-11 -101l-153 -23l-162 -1281l158 -29l-8 -88h-511zM193 1840q0 30 13 57t33.5 48t46 33t51.5 12q28 0 51 -9t39 -24.5t24.5 -36t8.5 -43.5q0 -30 -12.5 -58t-33.5 -49t-49 -33.5t-58 -12.5q-23 0 -44 9.5t-36.5 25 t-24.5 36.5t-9 45zM612 1844q0 30 13.5 56.5t35 46.5t47.5 31.5t50 11.5q57 0 89.5 -33t32.5 -79q0 -30 -12 -58t-33 -49.5t-49 -34t-59 -12.5q-24 0 -45 9.5t-36.5 26t-24.5 38t-9 46.5z" />
<glyph unicode="&#xd0;" horiz-adv-x="1430" d="M17 2l10 87l148 30l76 602h-150l16 132h150l70 547l-133 23l12 101h297q66 1 132 8.5t137 7.5q154 0 263 -44t178.5 -125t103 -194.5t35.5 -252.5q2 -133 -22 -254.5t-71.5 -227t-117 -191t-157.5 -145.5t-193 -91.5t-224 -28.5q-11 0 -25 1t-29.5 2t-30.5 2t-27 2 q-17 1 -42 3t-53 3t-55.5 2t-48.5 1h-249zM381 134q22 -8 54.5 -13.5t67 -9t67.5 -6t57 -2.5q96 7 172.5 43t135 94.5t100.5 135t68.5 163.5t38 181t10.5 187q-2 144 -27 242.5t-76.5 159.5t-131.5 88t-193 27q-21 0 -46.5 -1.5t-51.5 -4.5t-48.5 -7t-37.5 -8l-69 -550h387 l-17 -132h-387z" />
<glyph unicode="&#xd1;" horiz-adv-x="1518" d="M32 0l8 87l136 28l170 1283l-147 23l17 101h348l464 -1099l71 -233l144 1208l-151 23l12 101h453l-10 -101l-145 -23l-203 -1398h-195l-470 1104l-62 222l-127 -1209l162 -29l-9 -88h-466zM531 1801q12 32 33 62.5t49.5 54.5t64 38.5t78.5 14.5q50 0 88 -22t71.5 -48.5 t65.5 -48.5t70 -22q30 0 52.5 8.5t39.5 21t30 28t25 29.5l58 -82q-10 -27 -29 -57t-46.5 -55t-64.5 -41.5t-84 -16.5q-54 0 -91.5 21.5t-69 48t-62.5 48.5t-73 23q-49 1 -83.5 -24t-63.5 -63z" />
<glyph unicode="&#xd2;" horiz-adv-x="1383" d="M119 619q-2 132 20.5 252t65.5 222.5t105.5 185.5t140.5 141.5t169 90t192 31.5q127 0 220 -50.5t155 -136.5t93 -200.5t33 -243.5q2 -132 -20 -252.5t-65.5 -224t-106 -187.5t-140 -143.5t-169 -91.5t-192.5 -32q-127 0 -220.5 51.5t-155 139t-92.5 203.5t-33 245z M327 646q2 -120 23 -220.5t61 -173t99 -112.5t138 -40q98 0 182 58.5t144.5 162t94 246.5t30.5 312q-2 122 -23 221t-61 169.5t-99.5 109t-137.5 38.5q-98 0 -182 -57t-145 -159.5t-94 -244t-30 -310.5zM491 1880l135 121l263 -342l-68 -48q-36 13 -85.5 42t-98.5 66t-89 79 t-57 82z" />
<glyph unicode="&#xd3;" horiz-adv-x="1383" d="M119 619q-2 132 20.5 252t65.5 222.5t105.5 185.5t140.5 141.5t169 90t192 31.5q127 0 220 -50.5t155 -136.5t93 -200.5t33 -243.5q2 -132 -20 -252.5t-65.5 -224t-106 -187.5t-140 -143.5t-169 -91.5t-192.5 -32q-127 0 -220.5 51.5t-155 139t-92.5 203.5t-33 245z M327 646q2 -120 23 -220.5t61 -173t99 -112.5t138 -40q98 0 182 58.5t144.5 162t94 246.5t30.5 312q-2 122 -23 221t-61 169.5t-99.5 109t-137.5 38.5q-98 0 -182 -57t-145 -159.5t-94 -244t-30 -310.5zM747 1659l276 342l126 -121q-20 -42 -61.5 -84t-90.5 -78.5t-99 -65 t-86 -41.5z" />
<glyph unicode="&#xd4;" horiz-adv-x="1383" d="M119 619q-2 132 20.5 252t65.5 222.5t105.5 185.5t140.5 141.5t169 90t192 31.5q127 0 220 -50.5t155 -136.5t93 -200.5t33 -243.5q2 -132 -20 -252.5t-65.5 -224t-106 -187.5t-140 -143.5t-169 -91.5t-192.5 -32q-127 0 -220.5 51.5t-155 139t-92.5 203.5t-33 245z M327 646q2 -120 23 -220.5t61 -173t99 -112.5t138 -40q98 0 182 58.5t144.5 162t94 246.5t30.5 312q-2 122 -23 221t-61 169.5t-99.5 109t-137.5 38.5q-98 0 -182 -57t-145 -159.5t-94 -244t-30 -310.5zM498 1682l308 319h177l212 -319l-71 -59l-239 227l-324 -226z" />
<glyph unicode="&#xd5;" horiz-adv-x="1383" d="M119 619q-2 132 20.5 252t65.5 222.5t105.5 185.5t140.5 141.5t169 90t192 31.5q127 0 220 -50.5t155 -136.5t93 -200.5t33 -243.5q2 -132 -20 -252.5t-65.5 -224t-106 -187.5t-140 -143.5t-169 -91.5t-192.5 -32q-127 0 -220.5 51.5t-155 139t-92.5 203.5t-33 245z M327 646q2 -120 23 -220.5t61 -173t99 -112.5t138 -40q98 0 182 58.5t144.5 162t94 246.5t30.5 312q-2 122 -23 221t-61 169.5t-99.5 109t-137.5 38.5q-98 0 -182 -57t-145 -159.5t-94 -244t-30 -310.5zM488 1801q12 32 33 62.5t49.5 54.5t64 38.5t78.5 14.5q50 0 88 -22 t71.5 -48.5t65.5 -48.5t70 -22q30 0 52.5 8.5t39.5 21t30 28t25 29.5l58 -82q-10 -27 -29 -57t-46.5 -55t-64.5 -41.5t-84 -16.5q-54 0 -91.5 21.5t-69 48t-62.5 48.5t-73 23q-49 1 -83.5 -24t-63.5 -63z" />
<glyph unicode="&#xd6;" horiz-adv-x="1383" d="M119 619q-2 132 20.5 252t65.5 222.5t105.5 185.5t140.5 141.5t169 90t192 31.5q127 0 220 -50.5t155 -136.5t93 -200.5t33 -243.5q2 -132 -20 -252.5t-65.5 -224t-106 -187.5t-140 -143.5t-169 -91.5t-192.5 -32q-127 0 -220.5 51.5t-155 139t-92.5 203.5t-33 245z M327 646q2 -120 23 -220.5t61 -173t99 -112.5t138 -40q98 0 182 58.5t144.5 162t94 246.5t30.5 312q-2 122 -23 221t-61 169.5t-99.5 109t-137.5 38.5q-98 0 -182 -57t-145 -159.5t-94 -244t-30 -310.5zM523 1840q0 30 13 57t33.5 48t46 33t51.5 12q28 0 51 -9t39 -24.5 t24.5 -36t8.5 -43.5q0 -30 -12.5 -58t-33.5 -49t-49 -33.5t-58 -12.5q-23 0 -44 9.5t-36.5 25t-24.5 36.5t-9 45zM942 1844q0 30 13.5 56.5t35 46.5t47.5 31.5t50 11.5q57 0 89.5 -33t32.5 -79q0 -30 -12 -58t-33 -49.5t-49 -34t-59 -12.5q-24 0 -45 9.5t-36.5 26t-24.5 38 t-9 46.5z" />
<glyph unicode="&#xd7;" horiz-adv-x="1370" d="M230 438l383 327l-301 327l133 124l281 -350q1 1 28.5 27.5t68 65t88 83t88 83t68 64.5t28.5 27l103 -124l-383 -327l301 -327l-133 -124l-281 350q-1 -1 -28.5 -27.5t-68 -65t-88 -83t-88 -83t-68 -64.5t-28.5 -27z" />
<glyph unicode="&#xd8;" horiz-adv-x="1389" d="M119 621q-2 132 20.5 252t65.5 222.5t105.5 185.5t140.5 141.5t169 90t192 31.5q65 0 120 -13.5t103 -39.5l131 218l91 -42l-137 -235q48 -43 83.5 -99.5t59.5 -123t36 -141.5t14 -155q2 -132 -20 -252.5t-65.5 -224t-106 -187.5t-140 -143.5t-169 -91.5t-192.5 -32 q-77 0 -141 19.5t-117 54.5l-147 -240l-92 44l159 265q-41 44 -71 99.5t-50 119t-30.5 133.5t-11.5 144zM327 648q2 -109 19 -201t49 -162l561 1063q-74 71 -178 71q-98 0 -182 -57t-145 -159.5t-94 -244t-30 -310.5zM447 199q38 -47 88 -72t113 -25q98 0 182 58.5 t144.5 162t94 246.5t30.5 312q-2 123 -23.5 222.5t-62.5 170.5z" />
<glyph unicode="&#xd9;" horiz-adv-x="1382" d="M127 1422l12 100h491l-11 -100l-153 -25l-104 -786q-6 -56 -9 -103t-2 -90q3 -162 76.5 -244.5t204.5 -82.5q171 0 270.5 136t129.5 399l103 771l-134 24l11 101h434l-12 -101l-124 -23l-104 -771q-23 -177 -72 -300t-125 -200.5t-178 -112t-230 -34.5q-110 0 -194 31.5 t-141.5 89.5t-88 141t-32.5 186q0 39 1.5 79.5t6.5 85.5l107 805zM477 1880l135 121l263 -342l-68 -48q-36 13 -85.5 42t-98.5 66t-89 79t-57 82z" />
<glyph unicode="&#xda;" horiz-adv-x="1382" d="M127 1422l12 100h491l-11 -100l-153 -25l-104 -786q-6 -56 -9 -103t-2 -90q3 -162 76.5 -244.5t204.5 -82.5q171 0 270.5 136t129.5 399l103 771l-134 24l11 101h434l-12 -101l-124 -23l-104 -771q-23 -177 -72 -300t-125 -200.5t-178 -112t-230 -34.5q-110 0 -194 31.5 t-141.5 89.5t-88 141t-32.5 186q0 39 1.5 79.5t6.5 85.5l107 805zM733 1659l276 342l126 -121q-20 -42 -61.5 -84t-90.5 -78.5t-99 -65t-86 -41.5z" />
<glyph unicode="&#xdb;" horiz-adv-x="1382" d="M127 1422l12 100h491l-11 -100l-153 -25l-104 -786q-6 -56 -9 -103t-2 -90q3 -162 76.5 -244.5t204.5 -82.5q171 0 270.5 136t129.5 399l103 771l-134 24l11 101h434l-12 -101l-124 -23l-104 -771q-23 -177 -72 -300t-125 -200.5t-178 -112t-230 -34.5q-110 0 -194 31.5 t-141.5 89.5t-88 141t-32.5 186q0 39 1.5 79.5t6.5 85.5l107 805zM484 1682l308 319h177l212 -319l-71 -59l-239 227l-324 -226z" />
<glyph unicode="&#xdc;" horiz-adv-x="1382" d="M127 1422l12 100h491l-11 -100l-153 -25l-104 -786q-6 -56 -9 -103t-2 -90q3 -162 76.5 -244.5t204.5 -82.5q171 0 270.5 136t129.5 399l103 771l-134 24l11 101h434l-12 -101l-124 -23l-104 -771q-23 -177 -72 -300t-125 -200.5t-178 -112t-230 -34.5q-110 0 -194 31.5 t-141.5 89.5t-88 141t-32.5 186q0 39 1.5 79.5t6.5 85.5l107 805zM509 1840q0 30 13 57t33.5 48t46 33t51.5 12q28 0 51 -9t39 -24.5t24.5 -36t8.5 -43.5q0 -30 -12.5 -58t-33.5 -49t-49 -33.5t-58 -12.5q-23 0 -44 9.5t-36.5 25t-24.5 36.5t-9 45zM928 1844q0 30 13.5 56.5 t35 46.5t47.5 31.5t50 11.5q57 0 89.5 -33t32.5 -79q0 -30 -12 -58t-33 -49.5t-49 -34t-59 -12.5q-24 0 -45 9.5t-36.5 26t-24.5 38t-9 46.5z" />
<glyph unicode="&#xdd;" horiz-adv-x="1178" d="M60 1421l10 101h498l-12 -101l-161 -23l226 -557l36 -127l72 126l341 558l-140 23l11 101h417l-11 -101l-101 -23l-523 -807l-61 -474l196 -29l-8 -88h-607l9 88l215 29l61 474l-363 807zM671 1659l276 342l126 -121q-20 -42 -61.5 -84t-90.5 -78.5t-99 -65t-86 -41.5z " />
<glyph unicode="&#xde;" horiz-adv-x="1236" d="M28 0l10 87l147 30l161 1288l-133 23l12 102h491l-11 -102l-154 -23l-27 -210q53 9 108.5 13t108.5 4q114 0 200 -25.5t143 -74.5t85.5 -120t28.5 -162q0 -118 -47 -213.5t-129 -163t-193.5 -104.5t-240.5 -37q-66 0 -106.5 0.5t-67.5 2.5l-25 -198l174 -29l-8 -88h-527z M429 436q43 -6 82.5 -8.5t74.5 -2.5q104 0 181.5 27.5t128 76t75 115t23.5 143.5q-2 78 -16 135.5t-48.5 95.5t-93.5 56.5t-150 18.5q-51 0 -95 -5.5t-82 -13.5z" />
<glyph unicode="&#xdf;" horiz-adv-x="1186" d="M72 0l128 927q19 150 54 257t81 180t100.5 117t112.5 67t116.5 30t112.5 7q68 0 126.5 -16.5t101 -50.5t67 -85t24.5 -120q0 -55 -19.5 -101t-48 -86t-62.5 -76t-62.5 -70t-48 -68.5t-19.5 -70.5q0 -19 7.5 -40t23 -46.5t38.5 -56.5t54 -70q21 -31 41.5 -63t37 -68.5 t27 -77.5t10.5 -90q0 -72 -35 -134.5t-93.5 -109.5t-135.5 -74t-161 -27q-34 0 -67 4t-62.5 11t-54 15.5t-40.5 16.5l26 187q13 -15 37.5 -33t55.5 -33.5t65.5 -25.5t67.5 -10q44 0 78.5 7t58 26.5t36 54.5t12.5 93q0 30 -6.5 60t-17.5 59t-25 56t-29 51q-22 26 -45.5 59.5 t-43 69.5t-32 72t-12.5 69q0 36 8 63t22 50.5t33 45.5t41 47q60 61 96.5 131.5t36.5 156.5q0 37 -9 72.5t-28.5 63.5t-50 45.5t-73.5 17.5q-40 0 -75 -6.5t-66 -26t-58 -53.5t-50 -89.5t-41.5 -135t-33.5 -188.5l-133 -987h-199z" />
<glyph unicode="&#xe0;" horiz-adv-x="1175" d="M82 412q0 77 19.5 163t57.5 169.5t93.5 159.5t127.5 133.5t160.5 91.5t191.5 34q50 0 103.5 -10.5t95.5 -24.5l121 34l-131 -973q-5 -41 6 -58.5t24 -17.5q14 0 33.5 9t54.5 37l31 -54q-5 -9 -24.5 -30t-49.5 -42t-69 -37t-82 -16q-30 0 -55 7.5t-42 23.5t-25.5 42 t-6.5 62l7 66q-29 -37 -65.5 -73t-78.5 -64.5t-89 -46t-96 -17.5q-84 0 -143.5 32.5t-97 90t-54.5 136.5t-17 173zM293 435q0 -73 8 -130.5t25.5 -98t44 -62t64.5 -21.5q43 0 87.5 22t85.5 55.5t76 73.5t60 75l86 660q-27 17 -59.5 24t-69.5 7q-71 0 -129 -28t-103 -75 t-78.5 -108t-55 -128.5t-32 -136t-10.5 -129.5zM335 1595l155 148l288 -432l-67 -60q-21 9 -52.5 30t-68 50t-75 63.5t-73 69.5t-63 69t-44.5 62z" />
<glyph unicode="&#xe1;" horiz-adv-x="1175" d="M82 412q0 77 19.5 163t57.5 169.5t93.5 159.5t127.5 133.5t160.5 91.5t191.5 34q50 0 103.5 -10.5t95.5 -24.5l121 34l-131 -973q-5 -41 6 -58.5t24 -17.5q14 0 33.5 9t54.5 37l31 -54q-5 -9 -24.5 -30t-49.5 -42t-69 -37t-82 -16q-30 0 -55 7.5t-42 23.5t-25.5 42 t-6.5 62l7 66q-29 -37 -65.5 -73t-78.5 -64.5t-89 -46t-96 -17.5q-84 0 -143.5 32.5t-97 90t-54.5 136.5t-17 173zM293 435q0 -73 8 -130.5t25.5 -98t44 -62t64.5 -21.5q43 0 87.5 22t85.5 55.5t76 73.5t60 75l86 660q-27 17 -59.5 24t-69.5 7q-71 0 -129 -28t-103 -75 t-78.5 -108t-55 -128.5t-32 -136t-10.5 -129.5zM615 1312l317 431l144 -138q-9 -17 -33.5 -46.5t-58.5 -65.5t-74.5 -74t-81.5 -71.5t-79.5 -60t-68.5 -37.5z" />
<glyph unicode="&#xe2;" horiz-adv-x="1175" d="M82 412q0 77 19.5 163t57.5 169.5t93.5 159.5t127.5 133.5t160.5 91.5t191.5 34q50 0 103.5 -10.5t95.5 -24.5l121 34l-131 -973q-5 -41 6 -58.5t24 -17.5q14 0 33.5 9t54.5 37l31 -54q-5 -9 -24.5 -30t-49.5 -42t-69 -37t-82 -16q-30 0 -55 7.5t-42 23.5t-25.5 42 t-6.5 62l7 66q-29 -37 -65.5 -73t-78.5 -64.5t-89 -46t-96 -17.5q-84 0 -143.5 32.5t-97 90t-54.5 136.5t-17 173zM293 435q0 -73 8 -130.5t25.5 -98t44 -62t64.5 -21.5q43 0 87.5 22t85.5 55.5t76 73.5t60 75l86 660q-27 17 -59.5 24t-69.5 7q-71 0 -129 -28t-103 -75 t-78.5 -108t-55 -128.5t-32 -136t-10.5 -129.5zM360 1286l329 365h178l190 -365l-76 -58l-229 271l-333 -270z" />
<glyph unicode="&#xe3;" horiz-adv-x="1175" d="M82 412q0 77 19.5 163t57.5 169.5t93.5 159.5t127.5 133.5t160.5 91.5t191.5 34q50 0 103.5 -10.5t95.5 -24.5l121 34l-131 -973q-5 -41 6 -58.5t24 -17.5q14 0 33.5 9t54.5 37l31 -54q-5 -9 -24.5 -30t-49.5 -42t-69 -37t-82 -16q-30 0 -55 7.5t-42 23.5t-25.5 42 t-6.5 62l7 66q-29 -37 -65.5 -73t-78.5 -64.5t-89 -46t-96 -17.5q-84 0 -143.5 32.5t-97 90t-54.5 136.5t-17 173zM293 435q0 -73 8 -130.5t25.5 -98t44 -62t64.5 -21.5q43 0 87.5 22t85.5 55.5t76 73.5t60 75l86 660q-27 17 -59.5 24t-69.5 7q-71 0 -129 -28t-103 -75 t-78.5 -108t-55 -128.5t-32 -136t-10.5 -129.5zM380 1482q16 32 42 62.5t58.5 54t70 38t76.5 14.5q33 0 59 -10.5t47 -26t39 -33.5t35 -33.5t36 -26t42 -10.5q28 0 50 10.5t40.5 26t34 35t29.5 37.5l59 -92q-13 -38 -37.5 -71t-58 -57.5t-73 -38.5t-82.5 -14q-41 0 -69 10 t-49 25.5t-37.5 33.5t-33 33.5t-36 26t-47.5 11.5q-17 0 -37 -8t-39.5 -21.5t-38 -29.5t-32.5 -31z" />
<glyph unicode="&#xe4;" horiz-adv-x="1175" d="M82 412q0 77 19.5 163t57.5 169.5t93.5 159.5t127.5 133.5t160.5 91.5t191.5 34q50 0 103.5 -10.5t95.5 -24.5l121 34l-131 -973q-5 -41 6 -58.5t24 -17.5q14 0 33.5 9t54.5 37l31 -54q-5 -9 -24.5 -30t-49.5 -42t-69 -37t-82 -16q-30 0 -55 7.5t-42 23.5t-25.5 42 t-6.5 62l7 66q-29 -37 -65.5 -73t-78.5 -64.5t-89 -46t-96 -17.5q-84 0 -143.5 32.5t-97 90t-54.5 136.5t-17 173zM293 435q0 -73 8 -130.5t25.5 -98t44 -62t64.5 -21.5q43 0 87.5 22t85.5 55.5t76 73.5t60 75l86 660q-27 17 -59.5 24t-69.5 7q-71 0 -129 -28t-103 -75 t-78.5 -108t-55 -128.5t-32 -136t-10.5 -129.5zM403 1503q0 30 12 57t32.5 47.5t46.5 33t55 12.5q28 0 51 -9t39 -24t25 -35.5t9 -43.5q0 -30 -12.5 -58t-33.5 -49.5t-49 -34.5t-59 -13q-24 0 -45 9.5t-36.5 25t-25 37t-9.5 45.5zM825 1503q0 30 12 57t32 47.5t46.5 33 t55.5 12.5q57 0 90 -33t33 -79q0 -30 -12 -58t-33 -49.5t-49 -34.5t-59 -13q-24 0 -45.5 9.5t-37 25t-24.5 37t-9 45.5z" />
<glyph unicode="&#xe5;" horiz-adv-x="1175" d="M82 412q0 77 19.5 163t57.5 169.5t93.5 159.5t127.5 133.5t160.5 91.5t191.5 34q50 0 103.5 -10.5t95.5 -24.5l121 34l-131 -973q-5 -41 6 -58.5t24 -17.5q14 0 33.5 9t54.5 37l31 -54q-5 -9 -24.5 -30t-49.5 -42t-69 -37t-82 -16q-30 0 -55 7.5t-42 23.5t-25.5 42 t-6.5 62l7 66q-29 -37 -65.5 -73t-78.5 -64.5t-89 -46t-96 -17.5q-84 0 -143.5 32.5t-97 90t-54.5 136.5t-17 173zM293 435q0 -73 8 -130.5t25.5 -98t44 -62t64.5 -21.5q43 0 87.5 22t85.5 55.5t76 73.5t60 75l86 660q-27 17 -59.5 24t-69.5 7q-71 0 -129 -28t-103 -75 t-78.5 -108t-55 -128.5t-32 -136t-10.5 -129.5zM456 1486q0 80 32 137t83 93.5t113.5 53.5t122.5 17q131 0 203 -59.5t72 -168.5q0 -80 -30.5 -137.5t-79.5 -95t-110.5 -55.5t-124.5 -18q-139 0 -210 63t-71 170zM600 1506q0 -35 11.5 -65t32 -52t48 -35t60.5 -13 q38 0 72 9.5t60 32t41 60.5t15 95q0 35 -11 64t-30.5 50t-47 33t-60.5 12q-38 0 -72.5 -10t-60.5 -32.5t-42 -59t-16 -89.5z" />
<glyph unicode="&#xe6;" horiz-adv-x="1712" d="M82 411q0 77 19.5 163t57.5 169.5t94 159.5t128.5 133.5t161 91.5t191.5 34q50 0 103 -10t95 -24l118 34l-18 -133q68 60 146 95t164 38q73 3 126 -16.5t87.5 -54.5t51 -82t16.5 -100q0 -78 -34.5 -141t-91 -112.5t-127.5 -85.5t-143 -60t-139 -36.5t-114 -13.5 q-4 -63 0 -124t23.5 -109t58 -77t104.5 -29q81 0 174.5 33.5t182.5 112.5l47 -84q-22 -30 -63.5 -65t-97.5 -66t-125 -51.5t-146 -20.5q-81 0 -144 21.5t-108 61.5t-72.5 98t-39.5 131q-27 -56 -65.5 -111.5t-86.5 -100t-104.5 -72.5t-119.5 -28q-79 0 -137 30t-96.5 85.5 t-57.5 135.5t-19 180zM293 435q0 -158 35.5 -234.5t103.5 -76.5q37 0 72.5 15.5t67.5 41t61 58t53 66.5t42.5 66.5t31.5 57.5v1q1 61 12 123l-2 -3l74 451q-28 22 -63.5 30.5t-76.5 8.5q-71 0 -129.5 -28t-104 -75t-79 -108t-55.5 -128.5t-32.5 -136t-10.5 -129.5zM979 570 q39 2 86.5 12.5t96 29.5t94 47t80.5 63.5t56.5 78.5t21.5 94q-1 78 -33 114t-87 36q-49 0 -90 -23.5t-74.5 -62t-59.5 -88.5t-44.5 -103t-30 -104.5t-16.5 -93.5z" />
<glyph unicode="&#xe7;" horiz-adv-x="882" d="M76 431q0 77 17 161t50.5 165.5t83 155t115.5 129t147.5 88.5t178.5 33q27 0 57 -3.5t59 -9.5t56.5 -15t48.5 -20l-59 -199q-5 5 -11.5 9t-11.5 8q-43 35 -90.5 59t-95.5 24q-74 0 -135 -36.5t-104.5 -107t-67 -174.5t-23.5 -238q0 -89 14.5 -153t41 -105.5t64 -61 t83.5 -19.5q37 0 68.5 6.5t62 20.5t63.5 35.5t74 51.5l40 -82q-15 -18 -40.5 -42t-60 -47.5t-78.5 -44t-96 -30.5q12 -44 12 -104q0 -89 -22 -154.5t-60 -109t-89.5 -65t-111.5 -21.5q-40 0 -77 8t-54 20l16 151q6 -3 17 -6t23.5 -4.5t25.5 -2.5t25 -1q42 0 76 17.5t57.5 50 t36.5 78.5t13 103q0 9 -0.5 16.5t-0.5 15.5q-80 4 -143 36t-106.5 89.5t-66 139.5t-22.5 185z" />
<glyph unicode="&#xe8;" horiz-adv-x="1052" d="M85 430q2 95 24 186t60 172.5t91 150t118 118.5t140.5 78t158.5 28q73 0 126.5 -19t89 -53t53 -79.5t17.5 -98.5q0 -78 -35.5 -141t-93 -113t-130.5 -87t-146.5 -61t-141.5 -37t-116 -14q-3 -32 -1 -70t11 -76t25 -73t41 -62t59 -43t79 -16q77 0 165 34t173 113l47 -84 q-21 -30 -60.5 -65t-93 -66t-119.5 -51.5t-139 -20.5q-107 0 -184 38t-126 101t-71.5 144t-20.5 167zM257 1595l155 148l288 -432l-67 -60q-21 9 -52.5 30t-68 50t-75 63.5t-73 69.5t-63 69t-44.5 62zM305 570q40 2 89 12.5t98.5 30t97 47t84 63t58.5 79t22 94.5 q-1 78 -35.5 113.5t-89.5 35.5q-51 0 -93 -23.5t-76.5 -62t-61 -88.5t-46 -103t-31 -104.5t-16.5 -93.5z" />
<glyph unicode="&#xe9;" horiz-adv-x="1052" d="M85 430q2 95 24 186t60 172.5t91 150t118 118.5t140.5 78t158.5 28q73 0 126.5 -19t89 -53t53 -79.5t17.5 -98.5q0 -78 -35.5 -141t-93 -113t-130.5 -87t-146.5 -61t-141.5 -37t-116 -14q-3 -32 -1 -70t11 -76t25 -73t41 -62t59 -43t79 -16q77 0 165 34t173 113l47 -84 q-21 -30 -60.5 -65t-93 -66t-119.5 -51.5t-139 -20.5q-107 0 -184 38t-126 101t-71.5 144t-20.5 167zM305 570q40 2 89 12.5t98.5 30t97 47t84 63t58.5 79t22 94.5q-1 78 -35.5 113.5t-89.5 35.5q-51 0 -93 -23.5t-76.5 -62t-61 -88.5t-46 -103t-31 -104.5t-16.5 -93.5z M537 1312l317 431l144 -138q-9 -17 -33.5 -46.5t-58.5 -65.5t-74.5 -74t-81.5 -71.5t-79.5 -60t-68.5 -37.5z" />
<glyph unicode="&#xea;" horiz-adv-x="1052" d="M85 430q2 95 24 186t60 172.5t91 150t118 118.5t140.5 78t158.5 28q73 0 126.5 -19t89 -53t53 -79.5t17.5 -98.5q0 -78 -35.5 -141t-93 -113t-130.5 -87t-146.5 -61t-141.5 -37t-116 -14q-3 -32 -1 -70t11 -76t25 -73t41 -62t59 -43t79 -16q77 0 165 34t173 113l47 -84 q-21 -30 -60.5 -65t-93 -66t-119.5 -51.5t-139 -20.5q-107 0 -184 38t-126 101t-71.5 144t-20.5 167zM282 1286l329 365h178l190 -365l-76 -58l-229 271l-333 -270zM305 570q40 2 89 12.5t98.5 30t97 47t84 63t58.5 79t22 94.5q-1 78 -35.5 113.5t-89.5 35.5 q-51 0 -93 -23.5t-76.5 -62t-61 -88.5t-46 -103t-31 -104.5t-16.5 -93.5z" />
<glyph unicode="&#xeb;" horiz-adv-x="1052" d="M85 430q2 95 24 186t60 172.5t91 150t118 118.5t140.5 78t158.5 28q73 0 126.5 -19t89 -53t53 -79.5t17.5 -98.5q0 -78 -35.5 -141t-93 -113t-130.5 -87t-146.5 -61t-141.5 -37t-116 -14q-3 -32 -1 -70t11 -76t25 -73t41 -62t59 -43t79 -16q77 0 165 34t173 113l47 -84 q-21 -30 -60.5 -65t-93 -66t-119.5 -51.5t-139 -20.5q-107 0 -184 38t-126 101t-71.5 144t-20.5 167zM305 570q40 2 89 12.5t98.5 30t97 47t84 63t58.5 79t22 94.5q-1 78 -35.5 113.5t-89.5 35.5q-51 0 -93 -23.5t-76.5 -62t-61 -88.5t-46 -103t-31 -104.5t-16.5 -93.5z M325 1503q0 30 12 57t32.5 47.5t46.5 33t55 12.5q28 0 51 -9t39 -24t25 -35.5t9 -43.5q0 -30 -12.5 -58t-33.5 -49.5t-49 -34.5t-59 -13q-24 0 -45 9.5t-36.5 25t-25 37t-9.5 45.5zM747 1503q0 30 12 57t32 47.5t46.5 33t55.5 12.5q57 0 90 -33t33 -79q0 -30 -12 -58 t-33 -49.5t-49 -34.5t-59 -13q-24 0 -45.5 9.5t-37 25t-24.5 37t-9 45.5z" />
<glyph unicode="&#xec;" horiz-adv-x="642" d="M47 1595l155 148l288 -432l-67 -60q-21 9 -52.5 30t-68 50t-75 63.5t-73 69.5t-63 69t-44.5 62zM139 1031l18 81l306 51l49 -24l-139 -950q-11 -76 23 -76q16 0 40 13t66 53l32 -54q-7 -11 -29.5 -35t-55.5 -48.5t-74.5 -43t-87.5 -18.5q-63 0 -97 30t-29 103 q4 60 16.5 149t29.5 200.5t37.5 242t40.5 274.5z" />
<glyph unicode="&#xed;" horiz-adv-x="642" d="M139 1031l18 81l306 51l49 -24l-139 -950q-11 -76 23 -76q16 0 40 13t66 53l32 -54q-7 -11 -29.5 -35t-55.5 -48.5t-74.5 -43t-87.5 -18.5q-63 0 -97 30t-29 103q4 60 16.5 149t29.5 200.5t37.5 242t40.5 274.5zM325 1312l317 431l144 -138q-9 -17 -33.5 -46.5 t-58.5 -65.5t-74.5 -74t-81.5 -71.5t-79.5 -60t-68.5 -37.5z" />
<glyph unicode="&#xee;" horiz-adv-x="642" d="M70 1286l329 365h178l190 -365l-76 -58l-229 271l-333 -270zM139 1031l18 81l306 51l49 -24l-139 -950q-11 -76 23 -76q16 0 40 13t66 53l32 -54q-7 -11 -29.5 -35t-55.5 -48.5t-74.5 -43t-87.5 -18.5q-63 0 -97 30t-29 103q4 60 16.5 149t29.5 200.5t37.5 242 t40.5 274.5z" />
<glyph unicode="&#xef;" horiz-adv-x="642" d="M113 1503q0 30 12 57t32.5 47.5t46.5 33t55 12.5q28 0 51 -9t39 -24t25 -35.5t9 -43.5q0 -30 -12.5 -58t-33.5 -49.5t-49 -34.5t-59 -13q-24 0 -45 9.5t-36.5 25t-25 37t-9.5 45.5zM139 1031l18 81l306 51l49 -24l-139 -950q-11 -76 23 -76q16 0 40 13t66 53l32 -54 q-7 -11 -29.5 -35t-55.5 -48.5t-74.5 -43t-87.5 -18.5q-63 0 -97 30t-29 103q4 60 16.5 149t29.5 200.5t37.5 242t40.5 274.5zM535 1503q0 30 12 57t32 47.5t46.5 33t55.5 12.5q57 0 90 -33t33 -79q0 -30 -12 -58t-33 -49.5t-49 -34.5t-59 -13q-24 0 -45.5 9.5t-37 25 t-24.5 37t-9 45.5z" />
<glyph unicode="&#xf0;" horiz-adv-x="1177" d="M85 425q0 160 47 287t125 215.5t178 135.5t206 47q33 0 68 -6t67 -19.5t59.5 -34.5t45.5 -52q-17 72 -33.5 129.5t-40.5 106.5t-58.5 93t-86.5 90l-16 14l-154 -174l-101 89l154 165q-51 37 -103.5 65.5t-99.5 39.5l44 120q25 -6 56 -18t64.5 -28t68 -34.5t67.5 -38.5 q24 26 51 57.5t50 59.5q27 33 54 65l97 -91l-146 -163q4 -3 7 -6t7 -5q87 -73 148.5 -154.5t101 -171t57.5 -186.5t18 -201q0 -173 -39 -326t-115.5 -267.5t-189.5 -181t-260 -66.5q-102 0 -176.5 39.5t-124 102.5t-73.5 142.5t-24 160.5zM301 411q0 -66 13 -124.5 t39 -102.5t64.5 -69.5t90.5 -25.5q64 0 120 36t100.5 99t76 147t46.5 180q3 19 6 43t5.5 48.5t4.5 47t3 38.5q1 17 -4 43.5t-16 56.5t-29 60t-44.5 54.5t-61.5 39.5t-79 15q-59 0 -107 -25.5t-85 -68.5t-64 -101t-44.5 -123t-26 -134t-8.5 -134z" />
<glyph unicode="&#xf1;" horiz-adv-x="1260" d="M133 0l130 963l-98 59l18 89l247 52l48 -24l-20 -212q40 49 87.5 92.5t100 75t108 50t111.5 18.5q52 0 94 -15.5t71.5 -51t45.5 -93t16 -142.5q0 -37 -5 -81.5t-13 -91.5t-17 -94t-16 -89q-14 -77 -27 -159t-17 -159q-2 -36 2.5 -55.5t18.5 -19.5q13 0 32.5 9t54.5 37 l31 -53q-6 -9 -26 -30t-51 -42.5t-69.5 -37.5t-81.5 -16q-63 0 -97 30.5t-29 103.5q2 34 7 74.5t12 83t14.5 86.5t15.5 86q8 44 17.5 95.5t18 104.5t14.5 106t6 100q0 54 -8 84.5t-22.5 46t-35.5 19.5t-47 4q-38 0 -81.5 -18.5t-88 -51.5t-88 -77.5t-80.5 -96.5l-103 -759 h-200zM362 1482q16 32 42 62.5t58.5 54t70 38t76.5 14.5q33 0 59 -10.5t47 -26t39 -33.5t35 -33.5t36 -26t42 -10.5q28 0 50 10.5t40.5 26t34 35t29.5 37.5l59 -92q-13 -38 -37.5 -71t-58 -57.5t-73 -38.5t-82.5 -14q-41 0 -69 10t-49 25.5t-37.5 33.5t-33 33.5t-36 26 t-47.5 11.5q-17 0 -37 -8t-39.5 -21.5t-38 -29.5t-32.5 -31z" />
<glyph unicode="&#xf2;" horiz-adv-x="1145" d="M85 439q-2 91 16.5 180t53.5 169.5t86 149t115 118.5t139 78.5t160 28.5q96 0 169.5 -31t124 -90t77.5 -144.5t29 -194.5q1 -91 -17 -180t-53 -169.5t-86 -148.5t-115 -118t-139.5 -78.5t-160.5 -28.5q-96 0 -169.5 31t-123.5 89.5t-77 144t-29 194.5zM264 1595l155 148 l288 -432l-67 -60q-21 9 -52.5 30t-68 50t-75 63.5t-73 69.5t-63 69t-44.5 62zM299 441q2 -160 57 -249.5t163 -89.5q57 0 103 26.5t82 72t62.5 105.5t43 126.5t24 136t6.5 133.5q-2 159 -57.5 248.5t-163.5 89.5q-57 0 -103 -26.5t-82 -71.5t-62 -105t-43 -126.5 t-24.5 -136t-5.5 -133.5z" />
<glyph unicode="&#xf3;" horiz-adv-x="1145" d="M85 439q-2 91 16.5 180t53.5 169.5t86 149t115 118.5t139 78.5t160 28.5q96 0 169.5 -31t124 -90t77.5 -144.5t29 -194.5q1 -91 -17 -180t-53 -169.5t-86 -148.5t-115 -118t-139.5 -78.5t-160.5 -28.5q-96 0 -169.5 31t-123.5 89.5t-77 144t-29 194.5zM299 441 q2 -160 57 -249.5t163 -89.5q57 0 103 26.5t82 72t62.5 105.5t43 126.5t24 136t6.5 133.5q-2 159 -57.5 248.5t-163.5 89.5q-57 0 -103 -26.5t-82 -71.5t-62 -105t-43 -126.5t-24.5 -136t-5.5 -133.5zM544 1312l317 431l144 -138q-9 -17 -33.5 -46.5t-58.5 -65.5t-74.5 -74 t-81.5 -71.5t-79.5 -60t-68.5 -37.5z" />
<glyph unicode="&#xf4;" horiz-adv-x="1145" d="M85 439q-2 91 16.5 180t53.5 169.5t86 149t115 118.5t139 78.5t160 28.5q96 0 169.5 -31t124 -90t77.5 -144.5t29 -194.5q1 -91 -17 -180t-53 -169.5t-86 -148.5t-115 -118t-139.5 -78.5t-160.5 -28.5q-96 0 -169.5 31t-123.5 89.5t-77 144t-29 194.5zM299 441 q2 -160 57 -249.5t163 -89.5q57 0 103 26.5t82 72t62.5 105.5t43 126.5t24 136t6.5 133.5q-2 159 -57.5 248.5t-163.5 89.5q-57 0 -103 -26.5t-82 -71.5t-62 -105t-43 -126.5t-24.5 -136t-5.5 -133.5zM309 1286l329 365h178l190 -365l-76 -58l-229 271l-333 -270z" />
<glyph unicode="&#xf5;" horiz-adv-x="1145" d="M85 439q-2 91 16.5 180t53.5 169.5t86 149t115 118.5t139 78.5t160 28.5q96 0 169.5 -31t124 -90t77.5 -144.5t29 -194.5q1 -91 -17 -180t-53 -169.5t-86 -148.5t-115 -118t-139.5 -78.5t-160.5 -28.5q-96 0 -169.5 31t-123.5 89.5t-77 144t-29 194.5zM299 441 q2 -160 57 -249.5t163 -89.5q57 0 103 26.5t82 72t62.5 105.5t43 126.5t24 136t6.5 133.5q-2 159 -57.5 248.5t-163.5 89.5q-57 0 -103 -26.5t-82 -71.5t-62 -105t-43 -126.5t-24.5 -136t-5.5 -133.5zM357 1482q16 32 42 62.5t58.5 54t70 38t76.5 14.5q33 0 59 -10.5t47 -26 t39 -33.5t35 -33.5t36 -26t42 -10.5q28 0 50 10.5t40.5 26t34 35t29.5 37.5l59 -92q-13 -38 -37.5 -71t-58 -57.5t-73 -38.5t-82.5 -14q-41 0 -69 10t-49 25.5t-37.5 33.5t-33 33.5t-36 26t-47.5 11.5q-17 0 -37 -8t-39.5 -21.5t-38 -29.5t-32.5 -31z" />
<glyph unicode="&#xf6;" horiz-adv-x="1145" d="M85 439q-2 91 16.5 180t53.5 169.5t86 149t115 118.5t139 78.5t160 28.5q96 0 169.5 -31t124 -90t77.5 -144.5t29 -194.5q1 -91 -17 -180t-53 -169.5t-86 -148.5t-115 -118t-139.5 -78.5t-160.5 -28.5q-96 0 -169.5 31t-123.5 89.5t-77 144t-29 194.5zM299 441 q2 -160 57 -249.5t163 -89.5q57 0 103 26.5t82 72t62.5 105.5t43 126.5t24 136t6.5 133.5q-2 159 -57.5 248.5t-163.5 89.5q-57 0 -103 -26.5t-82 -71.5t-62 -105t-43 -126.5t-24.5 -136t-5.5 -133.5zM352 1503q0 30 12 57t32.5 47.5t46.5 33t55 12.5q28 0 51 -9t39 -24 t25 -35.5t9 -43.5q0 -30 -12.5 -58t-33.5 -49.5t-49 -34.5t-59 -13q-24 0 -45 9.5t-36.5 25t-25 37t-9.5 45.5zM774 1503q0 30 12 57t32 47.5t46.5 33t55.5 12.5q57 0 90 -33t33 -79q0 -30 -12 -58t-33 -49.5t-49 -34.5t-59 -13q-24 0 -45.5 9.5t-37 25t-24.5 37t-9 45.5z " />
<glyph unicode="&#xf7;" horiz-adv-x="1370" d="M273 695l18 159h872l-18 -159h-872zM526 374q3 32 20.5 59t42 47t54 31.5t58.5 11.5q35 0 59.5 -10t39.5 -27.5t20.5 -40.5t2.5 -48q-4 -33 -21 -60.5t-41 -47t-53.5 -30.5t-59.5 -11q-27 0 -50.5 8.5t-40.5 25t-25.5 40t-5.5 52.5zM622 1153q3 32 20.5 59t42.5 47 t54.5 31.5t58.5 11.5q35 0 59.5 -10t39.5 -27.5t20.5 -40.5t2.5 -49q-3 -33 -20 -60.5t-42 -47t-54.5 -30.5t-58.5 -11q-26 0 -50 8.5t-41 25t-26 40t-6 53.5z" />
<glyph unicode="&#xf8;" horiz-adv-x="1145" d="M85 441q-2 91 16.5 180t53.5 169.5t86 149t115 118.5t139 78.5t160 28.5q87 0 158 -27l93 156l92 -49l-94 -158q72 -57 110.5 -153.5t40.5 -228.5q1 -91 -17 -180t-53 -169.5t-86 -148.5t-115 -118t-139.5 -78.5t-160.5 -28.5q-102 0 -180 35l-100 -158l-91 49l104 167 q-127 118 -132 366zM299 443q2 -125 34 -205l403 766q-49 38 -117 38q-57 0 -103 -26.5t-82 -71.5t-62 -105t-43 -126.5t-24.5 -136t-5.5 -133.5zM386 156q52 -52 133 -52q57 0 103 26.5t82 72t62.5 105.5t43 126.5t24 136t6.5 133.5q-2 70 -12.5 127t-32.5 100z" />
<glyph unicode="&#xf9;" horiz-adv-x="1210" d="M149 1023l18 89l249 51l48 -24l-69 -550q-6 -45 -11 -84.5t-9.5 -75.5t-7 -71t-2.5 -72q0 -51 10 -84t28.5 -51.5t44.5 -25.5t58 -7q35 0 71 13.5t69.5 35.5t63.5 51t54 60l116 877h199l-125 -964q-10 -76 22 -76q8 0 17 2.5t21.5 10t29 20.5t38.5 33l31 -54 q-7 -11 -29.5 -35t-56 -48.5t-75.5 -43t-88 -18.5q-69 0 -97.5 42t-13.5 113l-1 9q-27 -32 -61 -62t-75 -53t-90 -37t-106 -14t-104.5 13.5t-81.5 45.5t-52.5 84.5t-18.5 130.5q0 33 3 74t8.5 86t11.5 91.5t12 91.5l51 366zM316 1595l155 148l288 -432l-67 -60 q-21 9 -52.5 30t-68 50t-75 63.5t-73 69.5t-63 69t-44.5 62z" />
<glyph unicode="&#xfa;" horiz-adv-x="1210" d="M149 1023l18 89l249 51l48 -24l-69 -550q-6 -45 -11 -84.5t-9.5 -75.5t-7 -71t-2.5 -72q0 -51 10 -84t28.5 -51.5t44.5 -25.5t58 -7q35 0 71 13.5t69.5 35.5t63.5 51t54 60l116 877h199l-125 -964q-10 -76 22 -76q8 0 17 2.5t21.5 10t29 20.5t38.5 33l31 -54 q-7 -11 -29.5 -35t-56 -48.5t-75.5 -43t-88 -18.5q-69 0 -97.5 42t-13.5 113l-1 9q-27 -32 -61 -62t-75 -53t-90 -37t-106 -14t-104.5 13.5t-81.5 45.5t-52.5 84.5t-18.5 130.5q0 33 3 74t8.5 86t11.5 91.5t12 91.5l51 366zM567 1312l317 431l144 -138q-9 -17 -33.5 -46.5 t-58.5 -65.5t-74.5 -74t-81.5 -71.5t-79.5 -60t-68.5 -37.5z" />
<glyph unicode="&#xfb;" horiz-adv-x="1210" d="M149 1023l18 89l249 51l48 -24l-69 -550q-6 -45 -11 -84.5t-9.5 -75.5t-7 -71t-2.5 -72q0 -51 10 -84t28.5 -51.5t44.5 -25.5t58 -7q35 0 71 13.5t69.5 35.5t63.5 51t54 60l116 877h199l-125 -964q-10 -76 22 -76q8 0 17 2.5t21.5 10t29 20.5t38.5 33l31 -54 q-7 -11 -29.5 -35t-56 -48.5t-75.5 -43t-88 -18.5q-69 0 -97.5 42t-13.5 113l-1 9q-27 -32 -61 -62t-75 -53t-90 -37t-106 -14t-104.5 13.5t-81.5 45.5t-52.5 84.5t-18.5 130.5q0 33 3 74t8.5 86t11.5 91.5t12 91.5l51 366zM312 1286l329 365h178l190 -365l-76 -58l-229 271 l-333 -270z" />
<glyph unicode="&#xfc;" horiz-adv-x="1210" d="M149 1023l18 89l249 51l48 -24l-69 -550q-6 -45 -11 -84.5t-9.5 -75.5t-7 -71t-2.5 -72q0 -51 10 -84t28.5 -51.5t44.5 -25.5t58 -7q35 0 71 13.5t69.5 35.5t63.5 51t54 60l116 877h199l-125 -964q-10 -76 22 -76q8 0 17 2.5t21.5 10t29 20.5t38.5 33l31 -54 q-7 -11 -29.5 -35t-56 -48.5t-75.5 -43t-88 -18.5q-69 0 -97.5 42t-13.5 113l-1 9q-27 -32 -61 -62t-75 -53t-90 -37t-106 -14t-104.5 13.5t-81.5 45.5t-52.5 84.5t-18.5 130.5q0 33 3 74t8.5 86t11.5 91.5t12 91.5l51 366zM355 1503q0 30 12 57t32.5 47.5t46.5 33t55 12.5 q28 0 51 -9t39 -24t25 -35.5t9 -43.5q0 -30 -12.5 -58t-33.5 -49.5t-49 -34.5t-59 -13q-24 0 -45 9.5t-36.5 25t-25 37t-9.5 45.5zM777 1503q0 30 12 57t32 47.5t46.5 33t55.5 12.5q57 0 90 -33t33 -79q0 -30 -12 -58t-33 -49.5t-49 -34.5t-59 -13q-24 0 -45.5 9.5t-37 25 t-24.5 37t-9 45.5z" />
<glyph unicode="&#xfd;" horiz-adv-x="1072" d="M-126 -478l47 160q7 -3 21 -10t35 -13.5t49.5 -12t64.5 -5.5q32 0 76.5 14.5t92.5 50t96.5 94t89.5 146.5h-96l-172 1017q-5 32 -15 44t-25 12q-6 0 -12.5 -1t-15.5 -4.5t-22 -12t-31 -23.5l-29 60q6 9 26 30t49.5 42t66 37t76.5 16q37 0 61.5 -9.5t39.5 -27.5 t22.5 -43.5t11.5 -56.5q0 -2 4 -34t10 -83.5t14 -116.5t15.5 -133t15.5 -133t14 -116t10 -83t4 -34l20 -272l155 310q32 76 66 146.5t62 142t46 146.5t18 162q0 17 -5.5 32.5t-11.5 31t-11.5 32t-5.5 34.5q0 56 28 80t71 24q68 0 99 -49t31 -142q0 -84 -23 -169 t-57.5 -167.5t-76 -160.5t-77.5 -149q-71 -142 -128.5 -249t-105 -186t-85 -134t-68.5 -92q-20 -29 -52.5 -59t-77.5 -54.5t-103 -40.5t-128 -16q-17 0 -41 2.5t-48.5 7t-47 9t-37.5 9.5zM506 1312l317 431l144 -138q-9 -17 -33.5 -46.5t-58.5 -65.5t-74.5 -74t-81.5 -71.5 t-79.5 -60t-68.5 -37.5z" />
<glyph unicode="&#xfe;" horiz-adv-x="1189" d="M52 -520l71 500l197 1504l-95 43l21 84l245 39l51 -27l-83 -621q24 31 55.5 60t70 51.5t82.5 36t94 13.5q87 0 151 -32.5t106 -90t62.5 -137t20.5 -173.5q0 -78 -19 -164t-56.5 -169t-92 -159t-125.5 -133t-158 -91t-188 -34q-35 0 -73.5 5t-73.5 13l-13 -138l-59 -380 h-191zM343 142q30 -23 68 -31.5t82 -8.5q69 0 125.5 28.5t101 76.5t76.5 110.5t53.5 131t31.5 137.5t10 131q0 145 -44.5 223.5t-122.5 78.5q-45 0 -88.5 -17.5t-81 -45t-68 -60.5t-50.5 -64z" />
<glyph unicode="&#xff;" horiz-adv-x="1072" d="M-126 -478l47 160q7 -3 21 -10t35 -13.5t49.5 -12t64.5 -5.5q32 0 76.5 14.5t92.5 50t96.5 94t89.5 146.5h-96l-172 1017q-5 32 -15 44t-25 12q-6 0 -12.5 -1t-15.5 -4.5t-22 -12t-31 -23.5l-29 60q6 9 26 30t49.5 42t66 37t76.5 16q37 0 61.5 -9.5t39.5 -27.5 t22.5 -43.5t11.5 -56.5q0 -2 4 -34t10 -83.5t14 -116.5t15.5 -133t15.5 -133t14 -116t10 -83t4 -34l20 -272l155 310q32 76 66 146.5t62 142t46 146.5t18 162q0 17 -5.5 32.5t-11.5 31t-11.5 32t-5.5 34.5q0 56 28 80t71 24q68 0 99 -49t31 -142q0 -84 -23 -169 t-57.5 -167.5t-76 -160.5t-77.5 -149q-71 -142 -128.5 -249t-105 -186t-85 -134t-68.5 -92q-20 -29 -52.5 -59t-77.5 -54.5t-103 -40.5t-128 -16q-17 0 -41 2.5t-48.5 7t-47 9t-37.5 9.5zM294 1503q0 30 12 57t32.5 47.5t46.5 33t55 12.5q28 0 51 -9t39 -24t25 -35.5 t9 -43.5q0 -30 -12.5 -58t-33.5 -49.5t-49 -34.5t-59 -13q-24 0 -45 9.5t-36.5 25t-25 37t-9.5 45.5zM716 1503q0 30 12 57t32 47.5t46.5 33t55.5 12.5q57 0 90 -33t33 -79q0 -30 -12 -58t-33 -49.5t-49 -34.5t-59 -13q-24 0 -45.5 9.5t-37 25t-24.5 37t-9 45.5z" />
<glyph unicode="&#x152;" horiz-adv-x="2088" d="M100 622q-2 133 21.5 252.5t69 221.5t110.5 184t144 139.5t170.5 88.5t191.5 31q78 0 143.5 -22.5t117.5 -63t91.5 -97.5t66.5 -126l35 292h764l-8 -293h-111l-47 170l-397 15l-75 -567l401 24l-16 -167l-395 17l-74 -604l511 24l96 190l108 -31l-65 -300h-872l30 259 q-44 -65 -98 -116.5t-116.5 -87.5t-132 -55.5t-145.5 -19.5q-116 0 -210.5 44t-162 127t-105.5 202t-41 269zM311 708q3 -140 21 -252t57.5 -191t102.5 -121.5t155 -43.5q99 -1 182.5 56.5t144 160t94 243t30.5 305.5q-2 145 -23.5 248.5t-62 170.5t-100.5 98.5t-138 31.5 q-98 0 -183.5 -54.5t-148.5 -149.5t-98.5 -224t-32.5 -278z" />
<glyph unicode="&#x153;" horiz-adv-x="1778" d="M86 439q-1 91 17 180t53 169.5t85.5 148.5t114.5 118t139 78.5t160 28.5q126 0 212.5 -52.5t133.5 -152.5q78 94 180.5 149.5t221.5 55.5q73 0 126.5 -19t89 -52.5t53 -79t17.5 -98.5q0 -78 -36 -141t-93.5 -113t-130 -87t-146 -61t-141.5 -37t-116 -14q-5 -49 2.5 -108 t32 -110.5t68 -86t111.5 -34.5q77 0 165 33.5t173 112.5l47 -84q-21 -30 -60.5 -65t-93.5 -66t-119.5 -51.5t-139.5 -20.5q-63 0 -116 14t-95.5 39t-75 59.5t-55.5 76.5q-75 -87 -173 -138t-213 -51q-96 0 -169.5 31t-123.5 89.5t-76.5 144t-28.5 194.5zM299 441 q1 -79 15.5 -142t42 -106.5t68 -67t94.5 -23.5q57 0 104 27t83 73.5t62 108t43 129.5q3 95 26 187q2 43 0.5 90t-9 93t-22.5 87.5t-40 73.5t-61 50.5t-86 18.5q-56 0 -102.5 -26.5t-82 -72t-62 -105t-43 -126t-24 -136t-6.5 -133.5zM1031 570q40 2 89 12.5t98.5 30t96.5 47 t83.5 63t58.5 79t22 94.5q0 78 -34.5 113.5t-89.5 35.5q-51 0 -93 -23.5t-76.5 -62t-61 -88.5t-46 -103t-31 -104.5t-16.5 -93.5z" />
<glyph unicode="&#x178;" horiz-adv-x="1178" d="M60 1421l10 101h498l-12 -101l-161 -23l226 -557l36 -127l72 126l341 558l-140 23l11 101h417l-11 -101l-101 -23l-523 -807l-61 -474l196 -29l-8 -88h-607l9 88l215 29l61 474l-363 807zM447 1840q0 30 13 57t33.5 48t46 33t51.5 12q28 0 51 -9t39 -24.5t24.5 -36 t8.5 -43.5q0 -30 -12.5 -58t-33.5 -49t-49 -33.5t-58 -12.5q-23 0 -44 9.5t-36.5 25t-24.5 36.5t-9 45zM866 1844q0 30 13.5 56.5t35 46.5t47.5 31.5t50 11.5q57 0 89.5 -33t32.5 -79q0 -30 -12 -58t-33 -49.5t-49 -34t-59 -12.5q-24 0 -45 9.5t-36.5 26t-24.5 38t-9 46.5z " />
<glyph unicode="&#x2c6;" horiz-adv-x="795" d="M50 1286l329 365h178l190 -365l-76 -58l-229 271l-333 -270z" />
<glyph unicode="&#x2dc;" horiz-adv-x="816" d="M49 1482q16 32 42 62.5t58.5 54t70 38t76.5 14.5q33 0 59 -10.5t47 -26t39 -33.5t35 -33.5t36 -26t42 -10.5q28 0 50 10.5t40.5 26t34 35t29.5 37.5l59 -92q-13 -38 -37.5 -71t-58 -57.5t-73 -38.5t-82.5 -14q-41 0 -69 10t-49 25.5t-37.5 33.5t-33 33.5t-36 26 t-47.5 11.5q-17 0 -37 -8t-39.5 -21.5t-38 -29.5t-32.5 -31z" />
<glyph unicode="&#x2000;" horiz-adv-x="1000" />
<glyph unicode="&#x2001;" horiz-adv-x="2001" />
<glyph unicode="&#x2002;" horiz-adv-x="1000" />
<glyph unicode="&#x2003;" horiz-adv-x="2001" />
<glyph unicode="&#x2004;" horiz-adv-x="667" />
<glyph unicode="&#x2005;" horiz-adv-x="500" />
<glyph unicode="&#x2006;" horiz-adv-x="333" />
<glyph unicode="&#x2007;" horiz-adv-x="333" />
<glyph unicode="&#x2008;" horiz-adv-x="250" />
<glyph unicode="&#x2009;" horiz-adv-x="400" />
<glyph unicode="&#x200a;" horiz-adv-x="111" />
<glyph unicode="&#x2010;" horiz-adv-x="1127" d="M223 692l18 160h717l-18 -160h-717z" />
<glyph unicode="&#x2011;" horiz-adv-x="1127" d="M223 692l18 160h717l-18 -160h-717z" />
<glyph unicode="&#x2012;" horiz-adv-x="1127" d="M223 692l18 160h717l-18 -160h-717z" />
<glyph unicode="&#x2013;" horiz-adv-x="1519" d="M223 693l30 159h1097l-30 -159h-1097z" />
<glyph unicode="&#x2014;" horiz-adv-x="2012" d="M223 693l29 159h1591l-30 -159h-1590z" />
<glyph unicode="&#x2018;" horiz-adv-x="683" d="M216 1213q0 68 16.5 127t45 109t66.5 92t81.5 76t90 60t91.5 45l42 -71l-2 -22q-39 -13 -77 -46.5t-68 -78.5t-48 -98.5t-18 -105.5q0 -32 8.5 -62t23 -53t34.5 -38t44 -18l-5 -41l-147 -152q-50 13 -84 43t-55 68.5t-30 81.5t-9 84z" />
<glyph unicode="&#x2019;" horiz-adv-x="683" d="M212 1006l2 22q39 13 77 46.5t68 78.5t48 98.5t18 105.5q0 32 -8.5 62t-23 53t-34.5 38t-44 18l5 41l147 152q50 -13 84 -43t55 -68.5t30 -81.5t9 -84q0 -68 -16.5 -127t-45 -109t-66.5 -92t-81.5 -76t-90 -60t-91.5 -45z" />
<glyph unicode="&#x201a;" horiz-adv-x="682" d="M29 -433l2 22q39 13 77 46.5t68 78.5t48 98.5t18 105.5q0 32 -8.5 62t-23 53t-34.5 38t-44 18l5 41l147 152q50 -13 84 -43t55 -68.5t30 -81.5t9 -84q0 -68 -16.5 -127t-45 -109t-66.5 -92t-81.5 -76t-90 -60t-91.5 -45z" />
<glyph unicode="&#x201c;" horiz-adv-x="1162" d="M216 1213q0 68 16.5 127t45 109t66.5 92t81.5 76t90 60t91.5 45l42 -71l-2 -22q-39 -13 -77 -46.5t-68 -78.5t-48 -98.5t-18 -105.5q0 -32 8.5 -62t23 -53t34.5 -38t44 -18l-5 -41l-147 -152q-50 13 -84 43t-55 68.5t-30 81.5t-9 84zM695 1213q0 68 16.5 127t45 109 t66.5 92t81.5 76t90 60t91.5 45l42 -71l-2 -22q-39 -13 -77 -46.5t-68 -78.5t-48 -98.5t-18 -105.5q0 -32 8.5 -62t23 -53t34.5 -38t44 -18l-5 -41l-147 -152q-50 13 -84 43t-55 68.5t-30 81.5t-9 84z" />
<glyph unicode="&#x201d;" horiz-adv-x="1162" d="M213 1006l2 22q39 13 77 46.5t68 78.5t48 98.5t18 105.5q0 32 -8.5 62t-23 53t-34.5 38t-44 18l5 41l147 152q50 -13 84 -43t55 -68.5t30 -81.5t9 -84q0 -68 -16.5 -127t-45 -109t-66.5 -92t-81.5 -76t-90 -60t-91.5 -45zM693 1006l2 22q39 13 77 46.5t68 78.5t48 98.5 t18 105.5q0 32 -8.5 62t-23 53t-34.5 38t-44 18l5 41l147 152q50 -13 84 -43t55 -68.5t30 -81.5t9 -84q0 -68 -16.5 -127t-45 -109t-66.5 -92t-81.5 -76t-90 -60t-91.5 -45z" />
<glyph unicode="&#x201e;" horiz-adv-x="1162" d="M29 -433l2 22q39 13 77 46.5t68 78.5t48 98.5t18 105.5q0 32 -8.5 62t-23 53t-34.5 38t-44 18l5 41l147 152q50 -13 84 -43t55 -68.5t30 -81.5t9 -84q0 -68 -16.5 -127t-45 -109t-66.5 -92t-81.5 -76t-90 -60t-91.5 -45zM508 -433l2 22q39 13 77 46.5t68 78.5t48 98.5 t18 105.5q0 32 -8.5 62t-23 53t-34.5 38t-44 18l5 41l147 152q50 -13 84 -43t55 -68.5t30 -81.5t9 -84q0 -68 -16.5 -127t-45 -109t-66.5 -92t-81.5 -76t-90 -60t-91.5 -45z" />
<glyph unicode="&#x2022;" horiz-adv-x="858" d="M231 701q0 52 19.5 97.5t53 79t79.5 52.5t100 19q38 0 70.5 -14.5t56.5 -39.5t37.5 -58.5t13.5 -70.5q0 -53 -19 -98.5t-52.5 -80t-80 -54t-100.5 -19.5q-38 0 -70.5 15.5t-56.5 41.5t-37.5 59.5t-13.5 70.5z" />
<glyph unicode="&#x2026;" horiz-adv-x="1578" d="M85 105q4 31 19 58.5t36.5 47.5t48.5 31.5t55 11.5q36 0 60.5 -10t39 -27.5t19.5 -40.5t2 -49q-4 -34 -19.5 -61.5t-39 -47t-52 -30t-58.5 -10.5q-27 0 -49 8.5t-37 25t-22 40t-3 53.5zM611 105q4 31 19 58.5t36.5 47.5t48.5 31.5t55 11.5q36 0 60.5 -10t39 -27.5 t19.5 -40.5t2 -49q-4 -34 -19.5 -61.5t-39 -47t-52 -30t-58.5 -10.5q-27 0 -49 8.5t-37 25t-22 40t-3 53.5zM1137 105q4 31 19 58.5t36.5 47.5t48.5 31.5t55 11.5q36 0 60.5 -10t39 -27.5t19.5 -40.5t2 -49q-4 -34 -19.5 -61.5t-39 -47t-52 -30t-58.5 -10.5q-27 0 -49 8.5 t-37 25t-22 40t-3 53.5z" />
<glyph unicode="&#x202f;" horiz-adv-x="400" />
<glyph unicode="&#x2039;" horiz-adv-x="1190" d="M241 530l22 160l693 396l39 -117l-508 -354l413 -350l-72 -113z" />
<glyph unicode="&#x203a;" horiz-adv-x="1190" d="M126 269l508 354l-413 350l72 113l587 -378l-22 -160l-693 -396z" />
<glyph unicode="&#x205f;" horiz-adv-x="500" />
<glyph unicode="&#x20ac;" horiz-adv-x="1388" d="M26 563l15 132h182q4 104 24 199h-158l19 131h175q42 120 109.5 215.5t152 161.5t183 101t203.5 35q58 0 104.5 -5t84 -13t68 -17.5t57.5 -18.5q18 -5 39.5 -11t34.5 -9l-54 -223h-109l-28 107q-13 14 -33 27t-50 22.5t-71 15.5t-96 6q-74 0 -136.5 -27t-112.5 -77.5 t-88 -123.5t-63 -166h567l-20 -131h-575q-8 -47 -12.5 -96.5t-6.5 -102.5h547l-13 -132h-535q3 -106 22 -191t55 -145t90 -92t128 -32q40 0 82 6t80.5 18.5t69.5 32t50 46.5l68 137l121 -1l-46 -272q-29 -2 -61 -9t-69 -17q-29 -9 -64 -19.5t-76 -19.5t-87.5 -15t-98.5 -6 q-78 0 -141.5 22.5t-113.5 62.5t-87.5 95t-63.5 119t-41.5 135.5t-20.5 144.5h-200z" />
<glyph unicode="&#x2122;" horiz-adv-x="2124" d="M133 1293l52 237h688l-32 -235l-64 -5l-8 134l-166 12l-82 -590l130 -16l-11 -78h-428l11 78l126 15l83 589l-173 -11l-60 -129zM854 752l11 78l107 15l112 591l-99 9l12 85h339l97 -428l30 -132l256 560h328l-12 -85l-97 -9l-21 -590l96 -16l-11 -78h-349l11 78l96 16 l20 370l19 223l-31 -70l-298 -625h-108l-138 548l-35 150l-26 -157l-80 -440l93 -15l-11 -78h-311z" />
<glyph unicode="&#x25fc;" horiz-adv-x="1165" d="M0 0v1165h1165v-1165h-1165z" />
<glyph unicode="&#xfb01;" horiz-adv-x="1347" d="M-209 -500l53 169q5 -2 24.5 -8.5t44.5 -13t51 -11.5t45 -5q24 0 43.5 18.5t34 51t24.5 76.5t17 95l138 1139h-138l15 76l149 62l12 71q15 93 55 174.5t96.5 143t123.5 97t136 35.5q38 0 75.5 -4.5t73.5 -21.5l-59 -168q-9 7 -21.5 15.5t-28.5 16t-37 12t-46 4.5 q-36 0 -64 -20.5t-48.5 -57t-34.5 -88t-21 -113.5l-12 -90h233l-17 -144h-234l-133 -1064q-13 -102 -47 -186t-84.5 -145t-115 -94.5t-138.5 -34.5q-52 -1 -97 3t-68 10zM844 1031l18 81l306 51l49 -24l-139 -950q-11 -76 23 -76q16 0 40 13t66 53l32 -54q-7 -11 -29.5 -35 t-55.5 -48.5t-74.5 -43t-87.5 -18.5q-63 0 -97 30t-29 103q4 60 16.5 149t29.5 200.5t37.5 242t40.5 274.5zM1020 1503q0 30 13 57t34 48t47 33t52 12q28 0 51 -9t39.5 -24t25 -35.5t8.5 -43.5q0 -30 -12.5 -58t-33.5 -49.5t-48.5 -34.5t-58.5 -13q-24 0 -45.5 9.5t-37 25 t-25 37t-9.5 45.5z" />
<glyph unicode="&#xfb02;" horiz-adv-x="1312" d="M-209 -500l53 169q5 -2 24.5 -8.5t44.5 -13t51 -11.5t45 -5q24 0 43.5 18.5t34 51t24.5 76.5t17 95l138 1139h-138l15 76l149 62l12 71q15 93 55 174.5t96.5 143t123.5 97t136 35.5q38 0 75.5 -4.5t73.5 -21.5l-59 -168q-9 7 -21.5 15.5t-28.5 16t-37 12t-46 4.5 q-36 0 -64 -20.5t-48.5 -57t-34.5 -88t-21 -113.5l-12 -90h233l-17 -144h-234l-133 -1064q-13 -102 -47 -186t-84.5 -145t-115 -94.5t-138.5 -34.5q-52 -1 -97 3t-68 10zM845 115q0 14 1.5 36t4.5 41l183 1290l-123 43l21 83l268 42l48 -27l-201 -1434q-5 -36 1 -56t20 -20 q7 0 16.5 2.5t22.5 9t29.5 19.5t38.5 34l31 -53q-6 -11 -28 -35t-54 -48.5t-73.5 -43t-86.5 -18.5q-61 0 -90 31t-29 104z" />
<glyph unicode="&#xfb03;" horiz-adv-x="2052" d="M-209 -500l53 169q5 -2 24.5 -8.5t44.5 -13t51 -11.5t45 -5q24 0 43.5 18.5t34 51t24.5 76.5t17 95l138 1139h-138l15 76l149 62l7 42q15 93 56.5 174.5t98.5 142.5t126 96.5t140 35.5q40 0 80 -4.5t79 -21.5l-60 -168q-10 7 -23 15.5t-30.5 16t-39.5 12t-49 4.5 q-38 0 -68 -20.5t-51.5 -57t-36 -87.5t-22.5 -113l-7 -61h233l-16 -144h-235l-133 -1064q-13 -102 -47 -186t-84.5 -145t-115 -94.5t-138.5 -34.5q-52 -1 -97 3t-68 10zM498 -500l53 169q5 -2 24.5 -8.5t44.5 -13t51 -11.5t45 -5q24 0 43.5 18.5t34 51t24.5 76.5t17 95 l138 1139h-138l15 76l149 62l12 71q15 93 55 174.5t96.5 143t123.5 97t136 35.5q38 0 75.5 -4.5t73.5 -21.5l-59 -168q-9 7 -21.5 15.5t-28.5 16t-37 12t-46 4.5q-36 0 -64 -20.5t-48.5 -57t-34.5 -88t-21 -113.5l-12 -90h233l-17 -144h-234l-133 -1064q-13 -102 -47 -186 t-84.5 -145t-115 -94.5t-138.5 -34.5q-52 -1 -97 3t-68 10zM1549 1031l18 81l306 51l49 -24l-139 -950q-11 -76 23 -76q16 0 40 13t66 53l32 -54q-7 -11 -29.5 -35t-55.5 -48.5t-74.5 -43t-87.5 -18.5q-63 0 -97 30t-29 103q4 60 16.5 149t29.5 200.5t37.5 242t40.5 274.5z M1725 1503q0 30 13 57t34 48t47 33t52 12q28 0 51 -9t39.5 -24t25 -35.5t8.5 -43.5q0 -30 -12.5 -58t-33.5 -49.5t-48.5 -34.5t-58.5 -13q-24 0 -45.5 9.5t-37 25t-25 37t-9.5 45.5z" />
<glyph unicode="&#xfb04;" horiz-adv-x="2017" d="M-209 -500l53 169q5 -2 24.5 -8.5t44.5 -13t51 -11.5t45 -5q24 0 43.5 18.5t34 51t24.5 76.5t17 95l138 1139h-138l15 76l149 62l7 42q15 93 56.5 174.5t98.5 142.5t126 96.5t140 35.5q40 0 80 -4.5t79 -21.5l-60 -168q-10 7 -23 15.5t-30.5 16t-39.5 12t-49 4.5 q-38 0 -68 -20.5t-51.5 -57t-36 -87.5t-22.5 -113l-7 -61h233l-16 -144h-235l-133 -1064q-13 -102 -47 -186t-84.5 -145t-115 -94.5t-138.5 -34.5q-52 -1 -97 3t-68 10zM498 -500l53 169q5 -2 24.5 -8.5t44.5 -13t51 -11.5t45 -5q24 0 43.5 18.5t34 51t24.5 76.5t17 95 l138 1139h-138l15 76l149 62l12 71q15 93 55 174.5t96.5 143t123.5 97t136 35.5q38 0 75.5 -4.5t73.5 -21.5l-59 -168q-9 7 -21.5 15.5t-28.5 16t-37 12t-46 4.5q-36 0 -64 -20.5t-48.5 -57t-34.5 -88t-21 -113.5l-12 -90h233l-17 -144h-234l-133 -1064q-13 -102 -47 -186 t-84.5 -145t-115 -94.5t-138.5 -34.5q-52 -1 -97 3t-68 10zM1550 115q0 14 1.5 36t4.5 41l183 1290l-123 43l21 83l268 42l48 -27l-201 -1434q-5 -36 1 -56t20 -20q7 0 16.5 2.5t22.5 9t29.5 19.5t38.5 34l31 -53q-6 -11 -28 -35t-54 -48.5t-73.5 -43t-86.5 -18.5 q-61 0 -90 31t-29 104z" />
</font>
</defs>
</svg>
